2 сезон

iTunes

MVO

1

2 сезон

iTunes

iTunes

1 сезон

RePack

30

Новинка

ВАЖНО

ИГРА 18+

pack

RePack

MK11
pack

Легкие деньги

RePack

jed

RePack

fifa19

RePack

RDR2

RePack

NEED FOR SPEED™ PAYBACK

4 сезон

9 сезон

Бесстыжие 9 сезон

Все сериалы

все сериалы на PB.wtf

RePack

FAR CRY 5

Anonymous, доброе утро, мы не успеваем собрать деньги на оплату серверов за декабрь и январь, помогите нам пожалуйста в это трудное время. В качестве благодарности мы отключим Вам всю рекламу на сайте (укажите свой ник в строку Ваше имя)!

×
  
Magnet ссылка

Одержимая / Crush (Малик Бейдер / Malik Bader) [2013, США, триллер, BDRip,Профессиональный [Дубляж - Лицензия] pb.wtf

Одержимая через торрент pb.wtf

Размер: 1.46 GB | Добавлен: 6 лет 8 мес. назад | Торрент скачан:246 раз
Скачать  

30-03-2014 18:39 Одержимая Скачать торрент  

Одержимая / Crush


  • Год выпуска: 2013
  • Страна: США
  • Жанр: триллер
  • Продолжительность: 01:34:51
  • Перевод: Профессиональный [Дубляж - Лицензия]

  • Субтитры: Нет
  • Режиссер: Малик Бейдер / Malik Bader
  • В ролях:

    Лукас Тилл (Scott), Кристал Рид (Bess), Сара Болджер (Jules), Каитриона Бэлфи (Andie), Рейд Юинг (Jeffrey), Холт МакКэллани (Mike Norris), Ли Уоннелл (David), Престон Дэвис (Casey), Камилла Гуати (Ms. Brown), Айзая Мустафа (Coach), Мередит Сэленджер (Bess's Mother), Майкл Лэндис (Dr. Graham)
    • Описание:
      Скромная, застенчивая девушка Бесс находит себе идеал в школе. Выбор пал на лучшего футболиста, покорителя всех девичьих сердец, Скотта. Бесс, не в силах противиться своей страсти, начинает преследовать своего кумира...

    Мировая премьера:13 марта 2013

    • Качество: BDRip
    • Формат: AVI
    • Видео кодек: XviD
    • Аудио кодек:AC3
    • Видео: XviD, 720x400 (16:9), 1746 kbps, 23,976 fps, 0,253 bpp
    • Аудио: AC3 / 5.1 / 48 kHz / 448 kbps / 16 bit


    Код:

    General
    Complete name                            : D:ТорентыOderjimaya.2013.D.BDRip_[New-Team]_by_avproh.avi
    Format                                   : AVI
    Format/Info                              : Audio Video Interleave
    File size                                : 1.46 GiB
    Duration                                 : 1h 34mn
    Overall bit rate                         : 2 203 Kbps
    Writing application                      : VirtualDubModRus 1.5.10.2 (build 2542/release)
    Writing library                          : VirtualDubMod build 2542/release

    Video
    ID                                       : 0
    Format                                   : MPEG-4 Visual
    Format profile                           : Advanced Simple@L5
    Format settings, BVOP                    : 1
    Format settings, QPel                    : No
    Format settings, GMC                     : No warppoints
    Format settings, Matrix                  : Custom
    Codec ID                                 : XVID
    Codec ID/Hint                            : XviD
    Duration                                 : 1h 34mn
    Bit rate                                 : 1 746 Kbps
    Width                                    : 720 pixels
    Height                                   : 400 pixels
    Display aspect ratio                     : 16:9
    Frame rate                               : 23.976 fps
    Color space                              : YUV
    Chroma subsampling                       : 4:2:0
    Bit depth                                : 8 bits
    Scan type                                : Progressive
    Compression mode                         : Lossy
    Bits/(Pixel*Frame)                       : 0.253
    Stream size                              : 1.16 GiB (79%)
    Writing library                          : XviD 73

    Audio
    ID                                       : 1
    Format                                   : AC-3
    Format/Info                              : Audio Coding 3
    Mode extension                           : CM (complete main)
    Codec ID                                 : 2000
    Duration                                 : 1h 34mn
    Bit rate mode                            : Constant
    Bit rate                                 : 448 Kbps
    Channel(s)                               : 6 channels
    Channel positions                        : Front: L C R, Side: L R, LFE
    Sampling rate                            : 48.0 KHz
    Bit depth                                : 16 bits
    Compression mode                         : Lossy
    Stream size                              : 304 MiB (20%)
    Alignment                                : Split accross interleaves
    Interleave, duration                     : 42 ms (1.00 video frame)
    Interleave, preload duration             : 500 ms

    Скриншоты:

    Трейлеры к фильмам [2014]
    © Оформление by Raven pb.wtf



  • Скачать Одержимая через торрент http://pic.kartinco.top/images/6/aeoj5.jpg Скачать фильм Одержимая через торрент бесплантно в хорошем качестве Описание:Скромная, застенчивая девушка Бесс находит себе идеал в школе. Выбор пал на лучшего футболиста, покорителя всех девичьих сердец, ... 10 10 9
    Info! Золотая раздача, скачанное не засчитывается.
    Торрент: Зарегистрирован [2014-04-22 20:49] · скачан: 246 раз
    Статус: √ проверено
    Размер: 1.46 GB
    Как cкачать? Как скачать Одержимая через торрент | UTorrent

    % Раздел Тема Автор DL S | L
    Фильмы 2013 [DVDrip, WEB-DLRip, HDrip] [ 1.46 GB ] Одержимая / Crush [2013 BDRip-AVC] DUB potroks Скачать
    1 | 0
    Фильмы 2013 [DVDrip, WEB-DLRip, HDrip] [ 1.46 GB ] Одержимая / Crush [2013 HDRip двухголосый] кэп Скачать
    1 | 0
    Фильмы (DVD фильмы) [ 3.54 GB ] Одержимая / Crush [2013 DVD5] R5 voovaz Скачать
    1 | 0
    Фильмы [HD 720p, 1080p] (Хороший звук DUB, MVO) [ 8.21 GB ] Одержимая / Crush [2013 BDRip 1080p] DUB / лицензия Ворон Скачать
    1 | 0
    Гонзо [ 2.01 GB ] Одержимые сексом / Possessed By Sex [2008 Anal Facial A2M Squirt WEB-DL 540p Split Scenes] Liloo_Foofyga Скачать
    1 | 0

    28-11-2019 20:33  

    Отключить всю рекламу на сайте

      Дорогой пользователь! Огромная просьба, поблагодарите релизера, оцените раздачу и оставьте свои комментарий, если Вы скачали Одержимая через торрент бесплатно! Внесите свою лепту в развитие PiratBit!
      Комментировать посты могут только пользователи прошедшие не сложную регистрацию
      Показать сообщения:    

      Одержимая через торрент
      Скачать бесплатно Одержимая
      Одержимая скачать торрент
      Одержимая смотреть онлайн
      Cкачать фильм Одержимая бесплатно
      Одержимая скачать торрент в хорошем качестве
      Одержимая смотреть онлайн бесплатно в хорошем качестве


      Вы не можете начинать темы
      Вы не можете отвечать на сообщения
      Вы не можете редактировать свои сообщения
      Вы не можете удалять свои сообщения
      Вы не можете голосовать в опросах
      Вы не можете прикреплять файлы к сообщениям
      Вы можете скачивать файлы