2 сезон

iTunes

1 сезон

1

iTunes

iTunes

iTunes

1 сезон

RePack

30

ИГРА 18+

pack

ВАЖНО

!!Акция!!

Alien_RageХит недели

RePack

MK11
pack

Забери бонус

RePack

jed

!!Акция!!

Alien_Rage

RePack

fifa19

RePack

Assassins Creed: Odyssey

RePack

NEED FOR SPEED™ PAYBACK

4 сезон

9 сезон

Бесстыжие 9 сезон

Все сериалы

все сериалы на PB.wtf

RePack

FAR CRY 5
  

Винни Пух: Весенние денёчки с малышом Ру / Winnie the Pooh: Springtime with Roo (Сауль Эндрю Блинкофф / Saul Andrew Blinkoff, Эллиот М. Бур / Elliot M. Bour) [2004, США, мультфильм, комедия, семейный, BDRip,Профессиональный [Дубляж - Лицензия] pb.wtf

Винни Пух: Весенние денёчки с малышом Ру через торрент pb.wtf

Размер: 1.08 GB | Добавлен: 6 лет 6 мес. назад | Торрент скачан:273 раза
Скачать  

23-04-2014 15:55 Винни Пух: Весенние денёчки с малышом Ру Скачать торрент  

Винни Пух: Весенние денёчки с малышом Ру / Winnie the Pooh: Springtime with Roo
Год выпуска: 2004
Страна: США
Жанр: мультфильм, комедия, семейный
Продолжительность: 01:05:31
Перевод: Профессиональный [Дубляж - Лицензия] + оригинал
Субтитры: Нет

Режиссер: Сауль Эндрю Блинкофф / Saul Andrew Blinkoff, Эллиот М. Бур / Elliot M. Bour
В ролях: Джим Каммингс (Winnie The Pooh, Tigger, озвучка), Кен Сэнсом (Rabbit, озвучка), Джимми Беннетт (Roo, озвучка), Дэвид Огден Стайерз (рассказчик, озвучка), Кэт Сауси (Kanga, озвучка), Джон Фидлер (Piglet, озвучка), Питер Каллен (Eeyore, озвучка)

Описание: Вот и наступил это замечательный весенний денек! Пчелки жужжат, цветочки распускаются, а Ру, Винни и Тигруля уже готовы к веселью и играм. Но Кролик не хочет никого выпускать на улицу, пока не будет закончена большая сезонная уборка!
Сможет ли что-то или кто-то повлиять на строгого Кролика? С помощью мудрости и доброты Ру Кролик вскоре понимает, что на свете есть необычные дни и к ним нужно относиться особенно.

kinopoisk.ru: 7.168 (359)
imdb.com: 6.40 (580)
MPAA: G - Нет возрастных ограничений

Качество: BDRip
Формат: AVI
Видео кодек: XviD
Аудио кодек: AC3
Видео: XviD, 688x384 (16:9), 1647 kbps, 23,976 fps, 0,260 bpp
Аудио Ru: AC3 / 2.0 / 48 kHz / 256 kbps / 16 bit
Аудио En: AC3 / 5.1 / 48 kHz / 448 kbps / 16 bit


General
Complete name : E:\закачки\Vesennie.denjochki.s.malyshom.Ru.2004.Xvid.BDRip-MediaClub.avi
Format : AVI
Format/Info : Audio Video Interleave
File size : 1.08 GiB
Duration : 1h 5mn
Overall bit rate : 2 366 Kbps
Movie name : = MediaClub = rip by Painter
Writing application : VirtualDubMod 1.5.10.3 (build 2550/release)
Writing library : VirtualDubMod build 2550/release

Video
ID : 0
Format : MPEG-4 Visual
Format profile : Advanced Simple@L5
Format settings, BVOP : 1
Format settings, QPel : No
Format settings, GMC : No warppoints
Format settings, Matrix : Custom
Codec ID : XVID
Codec ID/Hint : XviD
Duration : 1h 5mn
Bit rate : 1 647 Kbps
Width : 688 pixels
Height : 384 pixels
Display aspect ratio : 16:9
Frame rate : 23.976 fps
Color space : YUV
Chroma subsampling : 4:2:0
Bit depth : 8 bits
Scan type : Progressive
Compression mode : Lossy
Bits/(Pixel*Frame) : 0.260
Stream size : 772 MiB (70%)
Writing library : XviD 73

Audio #1
ID : 1
Format : AC-3
Format/Info : Audio Coding 3
Mode extension : CM (complete main)
Codec ID : 2000
Duration : 1h 5mn
Bit rate mode : Constant
Bit rate : 256 Kbps
Channel(s) : 2 channels
Channel positions : Front: L R
Sampling rate : 48.0 KHz
Bit depth : 16 bits
Compression mode : Lossy
Stream size : 120 MiB (11%)
Alignment : Split accross interleaves
Interleave, duration : 42 ms (1.00 video frame)
Interleave, preload duration : 500 ms

Audio #2
ID : 2
Format : AC-3
Format/Info : Audio Coding 3
Mode extension : CM (complete main)
Codec ID : 2000
Duration : 1h 5mn
Bit rate mode : Constant
Bit rate : 448 Kbps
Channel(s) : 6 channels
Channel positions : Front: L C R, Side: L R, LFE
Sampling rate : 48.0 KHz
Bit depth : 16 bits
Compression mode : Lossy
Stream size : 210 MiB (19%)
Alignment : Split accross interleaves
Interleave, duration : 42 ms (1.00 video frame)
Interleave, preload duration : 500 ms
Релиз от:
За исходник спасибо HDClubpb.wtf



Скачать Винни Пух: Весенние денёчки с малышом Ру через торрент http://img23.binimage.org/94/03/b0/kinopoisk.ruwinniethepooh_3a.jpg Скачать фильм Винни Пух: Весенние денёчки с малышом Ру через торрент бесплантно в хорошем качестве Описание: Вот и наступил это замечательный весенний денек! Пчелки жужжат, цветочки распускаются, а Ру, Винни и Тигруля уже готовы к веселью ... 10 10 8
Торрент: Зарегистрирован [2014-04-23 15:55] · скачан: 273 раз
Статус: √ проверено
Размер: 1.08 GB
Как cкачать? Как скачать Винни Пух: Весенние денёчки с малышом Ру через торрент | qTorrent

% Раздел Тема Автор DL S | L
Иностранные мультфильмы [ 2.18 GB ] Винни Пух: Весенние денёчки с малышом Ру / Winnie the Pooh: Springtime with Roo [2004 мультфильм BDRip ] coc900 Скачать
1 | 1

28-11-2019 20:33  

Отключить всю рекламу на сайте

23-04-2014 16:05 Винни Пух: Весенние денёчки с малышом Ру Скачать торрент  

Стресс снять от работы и просто отдохнуть,спасибо релизеруpb.wtf



    Дорогой пользователь! Огромная просьба, поблагодарите релизера, оцените раздачу и оставьте свои комментарий, если Вы скачали Винни Пух: Весенние денёчки с малышом Ру через торрент бесплатно! Внесите свою лепту в развитие PiratBit!
    Комментировать посты могут только пользователи прошедшие не сложную регистрацию
    Показать сообщения:    

    Винни Пух: Весенние денёчки с малышом Ру через торрент
    Скачать бесплатно Винни Пух: Весенние денёчки с малышом Ру
    Винни Пух: Весенние денёчки с малышом Ру скачать торрент
    Винни Пух: Весенние денёчки с малышом Ру смотреть онлайн
    Cкачать фильм Винни Пух: Весенние денёчки с малышом Ру бесплатно
    Винни Пух: Весенние денёчки с малышом Ру скачать торрент в хорошем качестве
    Винни Пух: Весенние денёчки с малышом Ру смотреть онлайн бесплатно в хорошем качестве


    Вы не можете начинать темы
    Вы не можете отвечать на сообщения
    Вы не можете редактировать свои сообщения
    Вы не можете удалять свои сообщения
    Вы не можете голосовать в опросах
    Вы не можете прикреплять файлы к сообщениям
    Вы можете скачивать файлы