Ссылка на приватное зеркало нашего сайта всего за 1$. Внимание количество ограничено!!!

2 сезон

iTunes

1 сезон

1

iTunes

iTunes

iTunes

1 сезон

RePack

30

ИГРА 18+

pack

ВАЖНО

!!Акция!!

Alien_RageХит недели

RePack

MK11
pack

Забери бонус

RePack

jed

!!Акция!!

Alien_Rage

RePack

fifa19

RePack

Assassins Creed: Odyssey

RePack

NEED FOR SPEED™ PAYBACK

4 сезон

9 сезон

Бесстыжие 9 сезон

Все сериалы

все сериалы на PB.wtf

RePack

FAR CRY 5
  

Шестой день / The 6th Day (Роджер Споттисвуд) [2000 г., Фантастика, боевик, триллер, BDRip 1080p, Дубляж] pb.wtf

Шестой день через торрент pb.wtf

Размер: 10.65 GB | Добавлен: 6 лет 6 мес. назад | Торрент скачан:159 раз
Скачать  

23-04-2014 20:33 Шестой день Скачать торрент  

Шестой день / The 6th Day
Год выпуска: 2000
Страна: США
Жанр: Фантастика, боевик, триллер
Продолжительность: 02:03:37
Перевод: Дублированный (Blu-ray CEE)+Профессиональный многоголосый (Карусель)+
Авторский одноголосый (А.Гаврилов)+Авторский одноголосый (Ю.Живов)+
Профессиональный многоголосый (DVD R7)+Оригинал

Субтитры: Русские, английский

Режиссер: Роджер Споттисвуд

В ролях: Арнольд Шварценеггер, Майкл Рапапорт, Тони Голдуин, Майкл Рукер, Сара Уайнтер, Венди Крюсон, Родни Роулэнд, Терри Крюс, Кен Поуг, Колин Каннингэм, Роберт Дювалл, Ванда Кэннон, Тейлор Энн Рейд, Дженнифер Гэрис, Дон МакМанус, Стив Бачич, Кристофер Лоуфорд, Марк Брэндон, Элли Харви, Дон С. Дэвис, Крис Каунд, Бен Басс, Роберт Кларк, Майкл Бадман, Уоррен Такэути, Клодин Грант, Александра Кастилло, Колин Лоуренс, Марк Гиббон, Брайан Дженсен, Кроуфорд Джеймс, Питер Кент, Хиро Канагава, Ми-Чжон Ли, Джиллиан Барбер, Джерард Планкет, Клер Райли, Эндрю МакИлрой, Норма Жан Уик, Пол Карсон, Грэхэм Эндрюс, Беннита Ха, Андреа Либман

Описание: Клонирование - хорошо это или нет? Человечество так и не определилось. Но в будущем закон о запрете выращивания человеческих клонов был принят безоговорочно. В честь дня сотворения человека Богом, его назвали "Законом Шестого Дня". Говорят, законы для того и существуют, чтобы нарушать их. И эта история не стала исключением. Всё началось тем поздним вечером, когда пилот вертолёта Адам Гибсон наконец оказался на пороге своего дома и увидел через окно, что он уже шумно празднует свой день рождения в кругу близких и друзей. Но попытавшись выяснить, что за двойник у него объявился, он оказался в центре заговора сторонников клонирования...

Качество: BDRip 1080p
Формат: MKV
Видео кодек: H.264
Аудио кодек: AC3
Видео: MPEG-4 AVC, (1920x800),8 500 Кбит/с, 23.976 кадра/сек
Аудио#1: AC-3, 6 ch, 640 kbps (Rus) 48.0 KHz Дублированный (Blu-ray CEE)
Аудио#2: AC-3, 6 ch, 640 kbps (Rus) 48.0 KHz Профессиональный многоголосый (Карусель)
Аудио#3: AC-3, 6 ch, 640 kbps (Rus) 48.0 KHz Авторский одноголосый (А.Гаврилов)
Аудио#4: AC-3, 6 ch, 640 kbps (Rus) 48.0 KHz Авторский одноголосый (Ю.Живов)
Аудио#5: AC-3, 6 ch, 640 kbps (Rus) 48.0 KHz Профессиональный многоголосый (DVD R7)
Аудио#6: AC-3, 6 ch, 640 kbps (Eng) 48.0 KHz Оригинал
скриншот   скриншот   скриншот  

Формат : Matroska
Версия формата : Version 4 / Version 2
Размер файла : 10,7 Гбайт
Продолжительность : 2 ч. 3 м.
Общий поток : 12,3 Мбит/сек
Название фильма : -=MediaClub-kaspr=-
Дата кодирования : UTC 2014-01-19 09:04:21
Программа кодирования : mkvmerge v6.1.0 ('Old Devil') built on Mar 4 2013 09:10:42
Библиотека кодирования : libebml v1.3.0 + libmatroska v1.4.0

Видео
Идентификатор : 1
Формат : AVC
Формат/Информация : Advanced Video Codec
Профиль формата : High@L4.1
Параметр CABAC формата : Да
Параметр ReFrames формата : 4 кадра
Идентификатор кодека : V_MPEG4/ISO/AVC
Продолжительность : 2 ч. 3 м.
Битрейт : 8500 Кбит/сек
Ширина : 1920 пикселей
Высота : 800 пикселей
Соотношение сторон : 2,40:1
Режим частоты кадров : Постоянный
Частота кадров : 23,976 кадра/сек
Цветовое пространство : YUV
Субдискретизация насыщенности : 4:2:0
Битовая глубина : 8 бит
Тип развёртки : Прогрессивная
Бит/(Пиксели*Кадры) : 0.231
Размер потока : 7,12 Гбайт (67%)
Заголовок : -=MediaClub-kaspr=-
Библиотека кодирования : x264 core 130 r2273 b3065e6
Настройки программы : cabac=1 / ref=4 / deblock=1:-3:-3 / analyse=0x3:0x133 / me=umh / subme=11 / psy=1 / psy_rd=1.00:0.20 / mixed_ref=1 / me_range=48 / chroma_me=1 / trellis=2 / 8x8dct=1 / cqm=0 / deadzone=21,11 / fast_pskip=0 / chroma_qp_offset=-3 / threads=12 / lookahead_threads=2 / sliced_threads=0 / nr=0 / decimate=0 / interlaced=0 / bluray_compat=0 / constrained_intra=0 / bframes=8 / b_pyramid=2 / b_adapt=2 / b_bias=0 / direct=3 / weightb=1 / open_gop=0 / weightp=2 / keyint=240 / keyint_min=23 / scenecut=40 / intra_refresh=0 / rc=2pass / mbtree=0 / bitrate=8500 / ratetol=1.0 / qcomp=0.60 / qpmin=0 / qpmax=69 / qpstep=4 / cplxblur=20.0 / qblur=0.5 / ip_ratio=1.40 / pb_ratio=1.30 / aq=1:1.00
Default : Да
Forced : Да

Аудио #1
Идентификатор : 2
Формат : AC-3
Формат/Информация : Audio Coding 3
Расширение режима : CM (complete main)
Параметр Endianness формата : Big
Идентификатор кодека : A_AC3
Продолжительность : 2 ч. 3 м.
Вид битрейта : Постоянный
Битрейт : 640 Кбит/сек
Каналы : 6 каналов
Расположение каналов : Front: L C R, Side: L R, LFE
Частота : 48,0 КГц
Битовая глубина : 16 бит
Метод сжатия : С потерями
Размер потока : 566 Мбайт (5%)
Заголовок : Dub
Язык : Russian
Default : Да
Forced : Да

Аудио #2
Идентификатор : 3
Формат : AC-3
Формат/Информация : Audio Coding 3
Расширение режима : CM (complete main)
Параметр Endianness формата : Big
Идентификатор кодека : A_AC3
Продолжительность : 2 ч. 3 м.
Вид битрейта : Постоянный
Битрейт : 640 Кбит/сек
Каналы : 6 каналов
Расположение каналов : Front: L C R, Side: L R, LFE
Частота : 48,0 КГц
Битовая глубина : 16 бит
Метод сжатия : С потерями
Размер потока : 566 Мбайт (5%)
Заголовок : MVO (Карусель)
Язык : Russian
Default : Нет
Forced : Нет

Аудио #3
Идентификатор : 4
Формат : AC-3
Формат/Информация : Audio Coding 3
Расширение режима : CM (complete main)
Параметр Endianness формата : Big
Идентификатор кодека : A_AC3
Продолжительность : 2 ч. 3 м.
Вид битрейта : Постоянный
Битрейт : 640 Кбит/сек
Каналы : 6 каналов
Расположение каналов : Front: L C R, Side: L R, LFE
Частота : 48,0 КГц
Битовая глубина : 16 бит
Метод сжатия : С потерями
Размер потока : 566 Мбайт (5%)
Заголовок : Гаврилов
Язык : Russian
Default : Нет
Forced : Нет

Аудио #4
Идентификатор : 5
Формат : AC-3
Формат/Информация : Audio Coding 3
Расширение режима : CM (complete main)
Параметр Endianness формата : Big
Идентификатор кодека : A_AC3
Продолжительность : 2 ч. 3 м.
Вид битрейта : Постоянный
Битрейт : 640 Кбит/сек
Каналы : 6 каналов
Расположение каналов : Front: L C R, Side: L R, LFE
Частота : 48,0 КГц
Битовая глубина : 16 бит
Метод сжатия : С потерями
Размер потока : 566 Мбайт (5%)
Заголовок : Живов
Язык : Russian
Default : Нет
Forced : Нет

Аудио #5
Идентификатор : 6
Формат : AC-3
Формат/Информация : Audio Coding 3
Расширение режима : CM (complete main)
Параметр Endianness формата : Big
Идентификатор кодека : A_AC3
Продолжительность : 2 ч. 3 м.
Вид битрейта : Постоянный
Битрейт : 640 Кбит/сек
Каналы : 6 каналов
Расположение каналов : Front: L C R, Side: L R, LFE
Частота : 48,0 КГц
Битовая глубина : 16 бит
Метод сжатия : С потерями
Размер потока : 566 Мбайт (5%)
Заголовок : MVO (DVD-R7)
Язык : Russian
Default : Нет
Forced : Нет

Аудио #6
Идентификатор : 7
Формат : AC-3
Формат/Информация : Audio Coding 3
Расширение режима : CM (complete main)
Параметр Endianness формата : Big
Идентификатор кодека : A_AC3
Продолжительность : 2 ч. 3 м.
Вид битрейта : Постоянный
Битрейт : 640 Кбит/сек
Каналы : 6 каналов
Расположение каналов : Front: L C R, Side: L R, LFE
Частота : 48,0 КГц
Битовая глубина : 16 бит
Метод сжатия : С потерями
Размер потока : 566 Мбайт (5%)
Язык : English
Default : Нет
Forced : Нет

Текст #1
Идентификатор : 8
Формат : UTF-8
Идентификатор кодека : S_TEXT/UTF8
Идентификатор кодека/Информация : UTF-8 Plain Text
Язык : Russian
Default : Нет
Forced : Нет

Текст #2
Идентификатор : 9
Формат : UTF-8
Идентификатор кодека : S_TEXT/UTF8
Идентификатор кодека/Информация : UTF-8 Plain Text
Язык : English
Default : Нет
Forced : Нет

Текст #3
Идентификатор : 10
Формат : UTF-8
Идентификатор кодека : S_TEXT/UTF8
Идентификатор кодека/Информация : UTF-8 Plain Text
Заголовок : SDH
Язык : English
Default : Нет
Forced : Нет

Меню
00:00:00.000 : en:Chapter 01
00:08:25.755 : en:Chapter 02
00:15:00.107 : en:Chapter 03
00:18:35.656 : en:Chapter 04
00:23:12.724 : en:Chapter 05
00:31:23.214 : en:Chapter 06
00:38:44.405 : en:Chapter 07
00:45:13.085 : en:Chapter 08
00:54:19.839 : en:Chapter 09
00:58:22.874 : en:Chapter 10
01:10:09.287 : en:Chapter 11
01:15:44.872 : en:Chapter 12
01:24:10.754 : en:Chapter 13
01:33:41.490 : en:Chapter 14
01:41:33.378 : en:Chapter 15
01:49:20.679 : en:Chapter 16

pb.wtf



Скачать Шестой день через торрент http://pic.kartinco.top/images/6/2zso4.jpg Скачать фильм Шестой день через торрент бесплантно в хорошем качестве Описание: Клонирование - хорошо это или нет? Человечество так и не определилось. Но в будущем закон о запрете выращивания человеческих ... 10 10 9
Info! Серебряная раздача, засчитывается только 50% скачанного.
Торрент: Зарегистрирован [2014-04-23 20:33] · скачан: 159 раз
Статус: √ проверено
Размер: 10.65 GB
Как cкачать? Как скачать Шестой день через торрент | qTorrent

% Раздел Тема Автор DL S | L
R.G. Resident & PiratVoice - Фильмы, Видео [ 2.72 GB ] Шестой день / The 6th Day [2000 BDRip-AVC by schultz] schultz Скачать
1 | 1
Фильмы (Blu-ray, BD-Remux, HDDVD) [ 33.78 GB ] Шестой день / The 6th Day [2000 Blu-ray CEE 1080p] DUB bober100 Скачать
1 | 0
Фильмы до 2000 г. [ 2.18 GB ] Шестой день / The 6th Day [2000 BDRip] chaga2009 Скачать
1 | 0
Фильмы до 2000 г. [ 1.46 GB ] Шестой день / The 6th Day [2000 BDRip ] Бумер Скачать
1 | 0
Фильмы с авторской озвучкой [ 1.85 GB ] Шестой день / The 6th Day [2000 BDRip] 2x[AVO] killermax2013 Скачать
1 | 0

28-11-2019 20:33  

Отключить всю рекламу на сайте

    Дорогой пользователь! Огромная просьба, поблагодарите релизера, оцените раздачу и оставьте свои комментарий, если Вы скачали Шестой день через торрент бесплатно! Внесите свою лепту в развитие PiratBit!
    Комментировать посты могут только пользователи прошедшие не сложную регистрацию
    Показать сообщения:    

    Шестой день через торрент
    Скачать бесплатно Шестой день
    Шестой день скачать торрент
    Шестой день смотреть онлайн
    Cкачать фильм Шестой день бесплатно
    Шестой день скачать торрент в хорошем качестве
    Шестой день смотреть онлайн бесплатно в хорошем качестве


    Вы не можете начинать темы
    Вы не можете отвечать на сообщения
    Вы не можете редактировать свои сообщения
    Вы не можете удалять свои сообщения
    Вы не можете голосовать в опросах
    Вы не можете прикреплять файлы к сообщениям
    Вы можете скачивать файлы