Ссылка на приватное зеркало всего за 1$. Внимание количество ограничено!!!

iTunes

1+1

iTunes

мы

WEB-DL

1

iTunes

Чернобыль

iTunes

Ральф против интернета

Лицензия

ПШазам

Лицензия

Оно 2

Лицензия

30
pack

Вам бонус

ВАЖНО

!!Акция!!

Alien_RageХит недели

RePack

Resident Evil 21

ИГРА 18+

pack

RePack

jed

!!Акция!!

Alien_Rage

RePack

fifa19

RePack

Assassins Creed: Odyssey

RePack

NEED FOR SPEED™ PAYBACK

3 сезон

9 сезон

Бесстыжие 9 сезон

Все сериалы

все сериалы на PB.wtf

RePack

FAR CRY 5
Ребята, катастрофически не хватает 1900р. для оплаты серверов за Октябрь (всвязи с блокировками трафик упал в 3 раза), 1-2р., выручайте.
  

Нимфоманка: Часть 2 / Nymphomaniac: Vol. II (Ларс фон Триер) [2013 г., драма, детектив, HDRip, Дубляж][Чистый звук] pb.wtf

Нимфоманка: Часть 2 через торрент pb.wtf

Раздают: 1 [ 0 KB/s ]
Размер: 2.06 GB | Добавлен: 5 лет 7 мес. назад | Торрент скачан:2832 раза
Скачать  

24-04-2014 03:14 Нимфоманка: Часть 2 Скачать торрент  

Нимфоманка: Часть 2 / Nymphomaniac: Vol. IIГод выпуска: 2013
Страна: Дания, Бельгия, Франция, Германия, Великобритания
Жанр: драма, детектив
Продолжительность: 02:03:30
Перевод: Дубляж [Чистый звук]
Режиссер: Ларс фон Триер
Продюссер: Мария Сесилия Гаде, Луиза Вест, Беттина Брокемпер
Сценарий: Ларс фон Триер
Премьера в мире: 25 декабря 2013



В ролях: Шарлотта Генсбур, Стеллан Скарсгард, Шайа ЛаБаф, Джейми Белл, Стэйси Мартин, Уиллем Дефо, Миа Гот, Жан-Марк Барр, Майкл Пас, Конни Нильсен
Описание: Продолжение истории нимфоманки по имени Джо, чья жизнь была полна множества эротических переживаний, впечатлений и опытов. Она рассказывает о себе немолодому одинокому холостяку Селигману, который наткнулся на нее, избитую и находящуюся в полубессознательном состоянии, в переулке, доставил к себе домой и выходил…

Качество: HDRip
Формат: AVI
Видео кодек: XviD
Аудио кодек: AC3
Видео: Xvid 720x304, 23.976fps, 1992 kb/s
Аудио#1: Dolby AC3, 48000Hz, 6ch, 384kbps
Общее
Полное имя : H:\H_Films\Nimfomanka.2.2013.D.HDRip.2100MB_.avi
Формат : AVI
Формат/Информация : Audio Video Interleave
Размер файла : 2,06 Гбайт
Продолжительность : 2 ч. 3 м.
Общий поток : 2385 Кбит/сек
Программа кодирования : VirtualDubMod 1.5.10.2 (build 2540/release)
Библиотека кодирования : VirtualDubMod build 2540/release

Видео
Идентификатор : 0
Формат : MPEG-4 Visual
Профиль формата : Advanced Simple@L5
Параметр BVOP формата : 2
Параметр QPel формата : Нет
Параметр GMC формата : Без точки перехода
Параметр матрицы формата : Выборочная
Идентификатор кодека : XVID
Идентификатор кодека/Подсказка : XviD
Продолжительность : 2 ч. 3 м.
Битрейт : 1992 Кбит/сек
Ширина : 720 пикселей
Высота : 304 пикселя
Соотношение сторон : 2,35:1
Частота кадров : 23,976 кадра/сек
Цветовое пространство : YUV
Субдискретизация насыщенности : 4:2:0
Битовая глубина : 8 бит
Тип развёртки : Прогрессивная
Метод сжатия : С потерями
Бит/(Пиксели*Кадры) : 0.380
Размер потока : 1,72 Гбайт (84%)
Библиотека кодирования : XviD 1.2.1 (UTC 2008-12-04)

Аудио
Идентификатор : 1
Формат : AC-3
Формат/Информация : Audio Coding 3
Расширение режима : CM (complete main)
Параметр Endianness формата : Big
Идентификатор кодека : 2000
Продолжительность : 2 ч. 3 м.
Вид битрейта : Постоянный
Битрейт : 384 Кбит/сек
Каналы : 6 каналов
Расположение каналов : Front: L C R, Side: L R, LFE
Частота : 48,0 КГц
Битовая глубина : 16 бит
Метод сжатия : С потерями
Размер потока : 339 Мбайт (16%)
Выравнивание : Разделение по промежуткам
Продолжительность промежутка : 42 мс. (1,00 видеокадр)
Время предзагрузки промежутка : 500 мс.
pb.wtf
KMessa-fan писал(а):

T временная
моно звук
http://piratpic.ru/images/6/j8bqj.jpg



Скачать Нимфоманка: Часть 2 через торрент http://s019.radikal.ru/i630/1404/80/8b6d53199a4d.png Скачать фильм Нимфоманка: Часть 2 через торрент бесплантно в хорошем качестве Описание: Продолжение истории нимфоманки по имени Джо, чья жизнь была полна множества эротических переживаний, впечатлений и опытов. Она ... 10 10 40
Info! Золотая раздача, скачанное не засчитывается.
Торрент: Зарегистрирован [2014-04-24 03:14] · скачан: 2 832 раз
Статус: T временная
Размер: 2.06 GB
Как cкачать? Как скачать Нимфоманка: Часть 2 через торрент | qTorrent

% Раздел Тема Автор DL S | L
Фильмы [HD 720p, 1080p] (Хороший звук DUB, MVO) [ 26.65 GB ] Нимфоманка: Часть 1-2 / Nymphomaniac: Vol. I-II [2013 BDRip 1080p Любительский многоголосый|HamsterStudio] nn99nn Скачать
1 | 0
Фильмы с авторской озвучкой [ 2.18 GB ] Нимфоманка: Часть 2 / Nymphomaniac: Vol. II [2013 BDRip-AVC] AVO [Ю.Сербин] potroks Скачать
1 | 0
T Фильмы (Blu-ray, BD-Remux, HDDVD) [ 22.53 GB ] Нимфоманка: Часть 2 / Nymphomaniac: Vol. II [2013 BDRemux ][Чистый звук] Ворон Скачать
1 | 0


Последний раз редактировалось: Tipok_dv (2014-04-24 06:25), всего редактировалось 2 раз(а)

28-11-2019 20:33  

Отключить всю рекламу на сайте

24-04-2014 03:40 Нимфоманка: Часть 2 Скачать торрент  

Как понял фильм просто подарок от всего света евросоюзаpb.wtf



24-04-2014 03:52 Нимфоманка: Часть 2 Скачать торрент  

elvovan писал(а):

Как понял фильм просто подарок от всего света евросоюза

:curtsey: :this:pb.wtf



24-04-2014 05:07 Нимфоманка: Часть 2 Скачать торрент  

Спасибо всем кто поддерживает раздачу ! pb.wtf



24-04-2014 05:26 Нимфоманка: Часть 2 Скачать торрент  

Tipok_dv писал(а):

[qpost=undefined]Перевод: Дубляж

укажите пожалуйста источник и качество дубляжа:

Код:

звук с CamRip, Звук с TS, Чистый звук, Лицензия [R5 или BD]

Предоставьте пожалуйста отчёт MediaInfo
http://pb.wtf/topic/127047

и сэмпл с этой раздачи. Продолжительность сэмпла от 1 до 3 минут, в этот прмежуток должен попасть диалог.
http://pb.wtf/topic/16298/
получившийся файл залейте на

Код:

sendfile.su (рекомендуется)
Яндекс.Диск
Файлы@Mail.ru

О исправлении сообщите в лс со ссылкой на раздачу.pb.wtf



    Дорогой пользователь! Огромная просьба, поблагодарите релизера, оцените раздачу и оставьте свои комментарий, если Вы скачали Нимфоманка: Часть 2 через торрент бесплатно! Внесите свою лепту в развитие PiratBit!
    Комментировать посты могут только пользователи прошедшие не сложную регистрацию
    Показать сообщения:    

    Нимфоманка: Часть 2 через торрент
    Скачать бесплатно Нимфоманка: Часть 2
    Нимфоманка: Часть 2 скачать торрент
    Нимфоманка: Часть 2 смотреть онлайн
    Cкачать фильм Нимфоманка: Часть 2 бесплатно
    Нимфоманка: Часть 2 скачать торрент в хорошем качестве
    Нимфоманка: Часть 2 смотреть онлайн бесплатно в хорошем качестве


    Вы не можете начинать темы
    Вы не можете отвечать на сообщения
    Вы не можете редактировать свои сообщения
    Вы не можете удалять свои сообщения
    Вы не можете голосовать в опросах
    Вы не можете прикреплять файлы к сообщениям
    Вы можете скачивать файлы