Всегда рабочее зеркало без VPN и Proxy просто перед .vidak.icu напиши любое слово или цифру, Пример http://ata3.vidak.icu

Лицензия

MVO

1 сезон

1

1 сезон

iTunes

1 сезон

13

1 сезон

Deluxe

pack

Рекомендуем

Repack

30

ВАЖНО

RePack

MK11

RePack

jed

RePack

fifa19

RePack

RDR2

RePack

NEED FOR SPEED™ PAYBACK

Кинопоиск HD

6 сезон

 Острые козырьки 6 сезон

Все сериалы

все сериалы на PB.wtf

RePack

FAR CRY 5
  
Magnet ссылка

Суперсемейка / The Incredibles (Брэд Бёрд) [2004, мультфильм, боевик, приключения, семейный, HDRip-AVC] DUB [Лицензия] от R.G. PiratFilms pb.wtf

Суперсемейка через торрент pb.wtf

Раздают: 1 [ 0 KB/s ]
Размер: 1.46 GB | Добавлен: 8 лет 3 мес. назад | Торрент скачан:1469 раз
Смотреть онлайн Суперсемейка | Скачать    Ребята, помогите собрать деньги на оплату серверов!!!

24-04-2014 05:00 Суперсемейка Скачать торрент  

Суперсемейка / The Incredibles
«Sock'er Mom»



Год выпуска: 2004
Страна: США
Жанр: мультфильм, боевик, приключения, семейный
Длительность: 01:55:25
Перевод: Профессиональный (Дубляж) [Лицензия]

Режиссер: Брэд Бёрд

В ролях: Крэйг Т. Нельсон, Холли Хантер, Сэмюэл Л. Джексон, Джейсон Ли, Доминик Луи, Тедди Ньютон, Джин Синсере, Илай Фучиле, Маив Эндрюс, Уоллес Шоун

Описание: История семьи супергероев, члены которой уже отошли от больших дел и предпочитают жить непримечательной жизнью обычных землян. В прошлом все они обладали сверхъестественными способностями и относительно легко справлялись с мировым злом.

Но в один прекрасный день папаше и его домочадцам приходится вновь облачиться в прорезиненные костюмы супергероев (а для этого нужно срочно сбросить лишние килограммы!) и в очередной раз спасти человечество от таинственного злодея…


|

Качество: HDRip-AVC (Rip by Demonessa)
Исходник: BDRip 1080p
Формат: MKV
Видео кодек: H.264
Аудио кодек: AC3
Видео: H.264, 1024*428, 23,976 кадр/сек, 1359 Кбит/сек, 0.129 Бит/(Пиксели*Кадры)
Аудио: AC3, 448 Кбит/сек, 6 каналов, 48,0 КГц

Код:

x264 [info]: frame I:1773  Avg QP:15.62  size: 47344  PSNR Mean Y:48.60 U:51.86 V:51.87 Avg:49.30 Global:48.69
x264 [info]: frame P:50314 Avg QP:19.22  size: 11458  PSNR Mean Y:46.63 U:51.34 V:51.28 Avg:47.47 Global:46.66
x264 [info]: frame B:113966 Avg QP:21.56  size:  4527  PSNR Mean Y:46.42 U:51.46 V:51.29 Avg:47.31 Global:46.27
x264 [info]: consecutive B-frames:  8.1%  7.0% 15.4% 33.1% 14.4% 18.0%  2.3%  1.1%  0.8%

Код:

Общее
Уникальный идентификатор                 : 244907447006843058759950862719378331889 (0xB83F7565757E9B02B24D99B70F7118F1)
Полное имя                               : G:\Video\Rip by Demonessa\The Incredibles Rip by Demonessa.mkv
Формат                                   : Matroska
Версия формата                           : Version 2
Размер файла                             : 1,46 Гбайт
Продолжительность                        : 1 ч. 55 м.
Общий поток                              : 1808 Кбит/сек
Дата кодирования                         : UTC 2014-04-24 05:30:43
Программа кодирования                    : mkvmerge v6.5.0 ('Isn't she lovely') built on Oct 20 2013 12:50:05
Библиотека кодирования                   : libebml v1.3.0 + libmatroska v1.4.1

Видео
Идентификатор                            : 1
Формат                                   : AVC
Формат/Информация                        : Advanced Video Codec
Профиль формата                          : [email protected]
Параметр CABAC формата                   : Да
Параметр ReFrames формата                : 12 кадров
Идентификатор кодека                     : V_MPEG4/ISO/AVC
Продолжительность                        : 1 ч. 55 м.
Битрейт                                  : 1359 Кбит/сек
Ширина                                   : 1024 пикселя
Высота                                   : 428 пикселей
Соотношение сторон                       : 2,40:1
Режим частоты кадров                     : Постоянный
Частота кадров                           : 23,976 кадра/сек
Цветовое пространство                    : YUV
Субдискретизация насыщенности            : 4:2:0
Битовая глубина                          : 8 бит
Тип развёртки                            : Прогрессивная
Бит/(Пиксели*Кадры)                      : 0.129
Размер потока                            : 1,07 Гбайт (73%)
Заголовок                                : Rip by Demonessa
Библиотека кодирования                   : x264 core 138 r2358 9e941d1
Настройки программы                      : cabac=1 / ref=12 / deblock=1:-1:-1 / analyse=0x3:0x113 / me=umh / subme=9 / psy=1 / psy_rd=1.00:0.00 / mixed_ref=1 / me_range=32 / chroma_me=1 / trellis=2 / 8x8dct=1 / cqm=0 / deadzone=21,11 / fast_pskip=1 / chroma_qp_offset=-2 / threads=6 / lookahead_threads=1 / sliced_threads=0 / nr=0 / decimate=1 / interlaced=0 / bluray_compat=0 / constrained_intra=0 / bframes=8 / b_pyramid=2 / b_adapt=2 / b_bias=0 / direct=1 / weightb=1 / open_gop=0 / weightp=2 / keyint=240 / keyint_min=23 / scenecut=40 / intra_refresh=0 / rc_lookahead=40 / rc=2pass / mbtree=1 / bitrate=1359 / ratetol=1.0 / qcomp=0.75 / qpmin=10 / qpmax=51 / qpstep=4 / cplxblur=20.0 / qblur=0.5 / ip_ratio=1.40 / aq=1:1.00
Язык                                     : English
Default                                  : Да
Forced                                   : Нет

Аудио
Идентификатор                            : 2
Формат                                   : AC-3
Формат/Информация                        : Audio Coding 3
Расширение режима                        : CM (complete main)
Параметр Endianness формата              : Big
Идентификатор кодека                     : A_AC3
Продолжительность                        : 1 ч. 55 м.
Вид битрейта                             : Постоянный
Битрейт                                  : 448 Кбит/сек
Каналы                                   : 6 каналов
Расположение каналов                     : Front: L C R, Side: L R, LFE
Частота                                  : 48,0 КГц
Битовая глубина                          : 16 бит
Метод сжатия                             : С потерями
Размер потока                            : 370 Мбайт (25%)
Язык                                     : Russian
Default                                  : Да
Forced                                   : Нет

pb.wtf



Скачать Суперсемейка через торрент https://pic1.kartinco.top/images/61/esg63.jpg Скачать, смотреть онлайн Суперсемейка бесплантно в хорошем качестве Описание: История семьи супергероев, члены которой уже отошли от больших дел и предпочитают жить непримечательной жизнью обычных землян. В ... 9.9 10 36
Info! Золотая раздача, скачанное не засчитывается.
Торрент: Зарегистрирован [2014-04-24 05:00] · скачан: 1 469 раз
Статус: √ проверено
Размер: 1.46 GB
Как cкачать? Как скачать Суперсемейка через торрент | UTorrent

28-11-2019 20:33  

Отключить вcю реклaмy на сайте

30-10-2018 16:31 Суперсемейка Скачать торрент  

pb.wtf



11-11-2018 12:50 Суперсемейка Скачать торрент  

Спасибо большое! Как раз сынишке показать что мы смотрели )pb.wtf



    Дорогой пользователь! Огромная просьба, поблагодарите релизера, оцените раздачу и оставьте свои комментарий, если Вы скачали Суперсемейка через торрент бесплатно!
    Комментировать посты могут только пользователи прошедшие не сложную регистрацию
    Показать сообщения:    

    Суперсемейка через торрент
    Скачать бесплатно Суперсемейка
    Суперсемейка скачать торрент
    Суперсемейка смотреть онлайн
    Cкачать фильм Суперсемейка бесплатно
    Суперсемейка скачать торрент в хорошем качестве
    Суперсемейка смотреть онлайн бесплатно в хорошем качестве


    Вы не можете начинать темы
    Вы не можете отвечать на сообщения
    Вы не можете редактировать свои сообщения
    Вы не можете удалять свои сообщения
    Вы не можете голосовать в опросах
    Вы не можете прикреплять файлы к сообщениям
    Вы можете скачивать файлы