2 сезон

iTunes

MVO

1

2 сезон

iTunes

iTunes

1 сезон

RePack

30

Новинка

ВАЖНО

ИГРА 18+

pack

RePack

MK11
pack

Легкие деньги

RePack

jed

RePack

fifa19

RePack

RDR2

RePack

NEED FOR SPEED™ PAYBACK

4 сезон

9 сезон

Бесстыжие 9 сезон

Все сериалы

все сериалы на PB.wtf

RePack

FAR CRY 5

Anonymous, доброй ночи, мы не успеваем собрать деньги на оплату серверов за декабрь и январь, помогите нам пожалуйста в это трудное время. В качестве благодарности мы отключим Вам всю рекламу на сайте (укажите свой ник в строку Ваше имя)!

×
  
Magnet ссылка

47 ронинов 3D / 47 Ronin 3D (Карл Ринш / Carl Rinsch) [ 2013 , США , фэнтези, боевик, приключения , BDRip1080 ]DUB Half OverUnder pb.wtf

47 ронинов 3D через торрент pb.wtf

Размер: 9.96 GB | Добавлен: 6 лет 8 мес. назад | Торрент скачан:814 раз
Скачать  

24-04-2014 07:04 47 ронинов 3D Скачать торрент  

47 ронинов / 47 Ronin
«This Christmas, seize eternity»
Год выпуска: 2013
Страна: США
Жанр: фэнтези, боевик, приключения
Продолжительность: 01:58:43
Перевод: Профессиональный (полное дублирование)
Субтитры: Вшитые отключаемые (Русские (forced, full), украинские, английские (full, SDH, SDH-colored))
Режиссер: Карл Ринш / Carl Rinsch
Сценарий: Крис Морган / Chris Morgan, Хуссейн Амини / Hossein Amini, Уолтер Хамада / Walter Hamada
Продюсер: Памела Эбди / Pamela Abdy, Эрик МакЛеод / Eric McLeod, Скотт Стубер / Scott Stuber, Крис Фентон / Chris Fenton, Уолтер Хамада / Walter Hamada
Оператор: Джон Мэтисон / John Mathieson
Композитор: Илан Эшкери / Ilan Eshkeri
В ролях:
Киану Ривз (Kai), Хироюки Санада (Ôishi), Ко Шибасаки (Mika), Таданобу Асано (Lord Kira), Мин Танака (Lord Asano), Джин Аканиши (Chikara), Масаёси Ханеда (Yasuno), Хироси Согабэ (Hazama), Такато Йонемото (Basho), Хироси Ямада (Hara), Шу Накаджима (Horibe), Кэри-Хироюки Тагава (Shogun Tsunayoshi)
Роли дублировали:
Анатолий Белый (Kai), Илья Исаев (Ôishi), Элиза Мартиросова (Mika), Сергей Смирнов (Lord Kira), Владимир Левашёв (Lord Asano), Константин Карасик (Yasuno), Иван Жарков (Basho), Александр Головчанский (Horibe), Игорь Старосельцев (Shogun Tsunayoshi), Татьяна Шитова (Witch), Сергей Чонишвили (Tengu Lord), Владимир Антипов
Бюджет: $175 000 000
Сборы в США: $38 362 475
Сборы в России: $26 316 217
Сборы в мире: $149 862 475
Мировая премьера: 6 декабря 2013
Релиз на DVD: 24 апреля 2014,«Двадцатый Век Фокс СНГ»
Релиз на Blu-ray: 24 апреля 2014,«Двадцатый Век Фокс СНГ»
Описание:
Таинственный странник, преданный всеми, проданный в рабство, избранный судьбой вершить месть, станет одним из 47 воинов, бросивших вызов смерти. Явившись из другого мира, он восстанет против темных сил, чтобы защитить свою запретную любовь.
Рейтинг
kinopoisk.ru: 6.858 (35 932)
imdb.com: 6.40 (53 394)
MPAA: PG-13 - Детям до 13 лет просмотр не желателен
Качество: BDRip1080
Формат: MKV
Видео кодек: AVC
Аудио кодек: AC3/DTS
Видео: AVC, 1920x1080 (16:9), 8872 kbps, 23,976 fps, 0,178 bpp
Аудио №1: русский / DTS / 5.1 / 48 kHz / 755 kbps / 24 bit
Аудио №2: русский / AC3 / 5.1 / 48 kHz / 640 kbps / 16 bit
Аудио №3: английский / DTS / 5.1 / 48 kHz / 1510 kbps / 24 bit

Формат 3D:Half OverUnder / Вертикальная анаморфная стереопара
Порядок ракурсов:левый ракурс первый
Общее
Кол-во : 285
Кол-во потоков такого типа : 1
Тип потока : General
Тип потока : Общее
Идентификатор типа потока : 0
Inform : Matroska: 9,96 Гбайт, 1 ч. 58 м.
Уникальный идентификатор : 190649189612572135977286437809219999418
Уникальный идентификатор : 190649189612572135977286437809219999418 (0x8F6DB2C4C241BD8981157D5F53D096BA)
Кол-во видеопотоков : 1
Кол-во аудиопотоков : 3
Кол-во текстовых потоков : 6
Кол-во потоков меню : 1
Video_Format_List : AVC
Video_Format_WithHint_List : AVC
Видеокодеки : AVC
Video_Language_List : English
Audio_Format_List : DTS / AC-3 / DTS
Audio_Format_WithHint_List : DTS / AC-3 / DTS
Аудиокодеки : DTS / AC3 / DTS
Audio_Language_List : Russian / Russian / English
Text_Format_List : UTF-8 / UTF-8 / UTF-8 / UTF-8 / UTF-8 / UTF-8
Text_Format_WithHint_List : UTF-8 / UTF-8 / UTF-8 / UTF-8 / UTF-8 / UTF-8
Текстовые кодеки : UTF-8 / UTF-8 / UTF-8 / UTF-8 / UTF-8 / UTF-8
Text_Language_List : Russian / Russian / Ukrainian / English / English / English
Полное имя : H:\ТОРРЕНТЫ\47 ронинов.mkv
Имя папки : H:\ТОРРЕНТЫ
Имя файла : 47 ронинов
Расширение : mkv
Формат : Matroska
Формат : Matroska
Формат/Ссылка : http://packs.matroska.org/
Формат/Используется в : mkv mk3d mka mks
Коммерческое название : Matroska
Версия формата : Version 2
Кодек : Matroska
Кодек : Matroska
Кодек/Ссылка : http://packs.matroska.org/
Кодек/Используется в : mkv mk3d mka mks
Размер файла : 10698822583
Размер файла : 9,96 Гбайт
Размер файла : 10 Гбайт
Размер файла : 10,0 Гбайт
Размер файла : 9,96 Гбайт
Размер файла : 9,964 Гбайт
Продолжительность : 7123241
Продолжительность : 1 ч. 58 м.
Продолжительность : 1 ч. 58 м. 43 с. 241 мс.
Продолжительность : 1 ч. 58 м.
Продолжительность : 01:58:43.241
Общий поток : 12015679
Общий поток : 12,0 Мбит/сек
Размер потока : 212898956
Размер потока : 203 Мбайт (2%)
Размер потока : 203 Мбайт
Размер потока : 203 Мбайт
Размер потока : 203 Мбайт
Размер потока : 203,0 Мбайт
Размер потока : 203 Мбайт (2%)
Пропорции потока : 0.01990
Заголовок : 47 Ronin (2013)
Название фильма : 47 Ronin (2013)
Дата кодирования : UTC 2014-04-23 13:18:02
Дата файла : UTC 2014-04-24 06:21:49.598
Дата файла (местная) : 2014-04-24 13:21:49.598
Дата изменения файла : UTC 2014-04-24 06:14:18.885
Дата изменения файла (местная) : 2014-04-24 13:14:18.885
Программа кодирования : mkvmerge v5.7.0 ('The Whirlwind') built on Aug 7 2012 14:11:40
Библиотека кодирования : libebml v1.2.3 + libmatroska v1.3.0
Библиотека кодирования : libebml v1.2.3 + libmatroska v1.3.0
Attachment : Yes

Видео
Кол-во : 271
Кол-во потоков такого типа : 1
Тип потока : Video
Тип потока : Видео
Идентификатор типа потока : 0
StreamOrder : 0
Inform : English, 8860 Кбит/сек, 1920*1080 (16:9), в 23,976 кадра/сек, AVC (High@L4.1) (CABAC / 4 Ref Frames)
Идентификатор : 1
Идентификатор : 1
Уникальный идентификатор : 1
Формат : AVC
Формат/Информация : Advanced Video Codec
Формат/Ссылка : http://developers.videolan.org/x264.html
Коммерческое название : AVC
Профиль формата : High@L4.1
Настройки формата : CABAC / 4 Ref Frames
Параметр CABAC формата : Yes
Параметр CABAC формата : Да
Параметр ReFrames формата : 4
Параметр ReFrames формата : 4 кадра
Интернет-тип носителя : video/H264
Идентификатор кодека : V_MPEG4/ISO/AVC
Идентификатор кодека/Ссылка : http://ffdshow-tryout.sourceforge.net/
Кодек : V_MPEG4/ISO/AVC
Кодек : AVC
Кодек/Семейство : AVC
Кодек/Информация : Advanced Video Codec
Кодек/Ссылка : http://ffdshow-tryout.sourceforge.net/
Профиль кодека : High@L4.1
Настройки кодека : CABAC / 4 Ref Frames
Параметр CABAC кодека : Yes
Codec_Settings_RefFrames : 4
Продолжительность : 7123248
Продолжительность : 1 ч. 58 м.
Продолжительность : 1 ч. 58 м. 43 с. 248 мс.
Продолжительность : 1 ч. 58 м.
Продолжительность : 01:58:43.248
Битрейт : 8859567
Битрейт : 8860 Кбит/сек
Ширина : 1920
Ширина : 1920 пикселей
Высота : 1080
Высота : 1080 пикселей
Пропорции пикселя : 1.000
Соотношение сторон : 1.778
Соотношение сторон : 16:9
Режим частоты кадров : CFR
Режим частоты кадров : Постоянный
Частота кадров : 23.976
Частота кадров : 23,976 кадра/сек
Счётчик кадров : 170787
Разрешение : 8
Разрешение : 8 бит
Колориметрия : 4:2:0
Цветовое пространство : YUV
Субдискретизация насыщенности : 4:2:0
Битовая глубина : 8
Битовая глубина : 8 бит
Тип развёртки : Progressive
Тип развёртки : Прогрессивная
Переплетение : PPF
Переплетение : Прогрессивная
Бит/(Пиксели*Кадры) : 0.178
Задержка : 0
Задержка : 00:00:00.000
Задержка в оригинале : Container
Задержка в оригинале : Контейнер
Размер потока : 7888611878
Размер потока : 7,35 Гбайт (74%)
Размер потока : 7 Гбайт
Размер потока : 7,3 Гбайт
Размер потока : 7,35 Гбайт
Размер потока : 7,347 Гбайт
Размер потока : 7,35 Гбайт (74%)
Пропорции потока : 0.73733
Заголовок : 47.ронинов-47.Ronin.(2013).BDRip.[1080p].3D
Библиотека кодирования : x264 - core 129 r2245 bc13772
Библиотека кодирования : x264 core 129 r2245 bc13772
Библиотека кодирования/Имя : x264
Библиотека кодирования/Version : core 129 r2245 bc13772
Настройки программы : cabac=1 / ref=4 / deblock=1:-3:-3 / analyse=0x3:0x113 / me=umh / subme=10 / psy=1 / psy_rd=1.00:0.15 / mixed_ref=1 / me_range=32 / chroma_me=1 / trellis=2 / 8x8dct=1 / cqm=0 / deadzone=21,11 / fast_pskip=1 / chroma_qp_offset=-3 / threads=12 / lookahead_threads=2 / sliced_threads=0 / nr=0 / decimate=1 / interlaced=0 / bluray_compat=0 / constrained_intra=0 / bframes=8 / b_pyramid=2 / b_adapt=2 / b_bias=0 / direct=3 / weightb=1 / open_gop=0 / weightp=2 / keyint=250 / keyint_min=23 / scenecut=40 / intra_refresh=0 / rc_lookahead=60 / rc=crf / mbtree=1 / crf=17.0 / qcomp=0.70 / qpmin=0 / qpmax=69 / qpstep=4 / vbv_maxrate=40000 / vbv_bufsize=30000 / crf_max=0.0 / nal_hrd=none / frame-packing=4 / ip_ratio=1.40 / aq=1:0.70
Язык : en
Язык : English
Язык : English
Язык : en
Язык : eng
Язык : en
Default : Yes
Default : Да
Forced : No
Forced : Нет

Аудио #1
Кол-во : 222
Кол-во потоков такого типа : 3
Тип потока : Audio
Тип потока : Аудио
Идентификатор типа потока : 0
Позиция идентификатора типа потока : 1
StreamOrder : 1
Inform : Russian, 768 Кбит/сек, 48,0 КГц, 24 бит, 6 каналов, DTS
Идентификатор : 2
Идентификатор : 2
Уникальный идентификатор : 2773467807
Формат : DTS
Формат/Информация : Digital Theater Systems
Коммерческое название : DTS
Режим : 16
Параметр Endianness формата : Big
Идентификатор кодека : A_DTS
Кодек : DTS
Кодек : DTS
Кодек/Семейство : DTS
Продолжительность : 7123241
Продолжительность : 1 ч. 58 м.
Продолжительность : 1 ч. 58 м. 43 с. 241 мс.
Продолжительность : 1 ч. 58 м.
Продолжительность : 01:58:43.241
Вид битрейта : CBR
Вид битрейта : Постоянный
Битрейт : 768000
Битрейт : 768 Кбит/сек
Каналы : 6
Каналы : 6 каналов
Расположение каналов : Front: L C R, Side: L R, LFE
Расположение каналов : 3/2/0.1
Частота : 48000
Частота : 48,0 КГц
Количество образцов : 341915568
Разрешение : 24
Разрешение : 24 бит
Битовая глубина : 24
Битовая глубина : 24 бит
Метод сжатия : Lossy
Метод сжатия : С потерями
Задержка : 0
Задержка : 00:00:00.000
Задержка в оригинале : Container
Задержка в оригинале : Контейнер
Задержка видео : 0
Задержка видео : 0
Размер потока : 683831136
Размер потока : 652 Мбайт (6%)
Размер потока : 652 Мбайт
Размер потока : 652 Мбайт
Размер потока : 652 Мбайт
Размер потока : 652,2 Мбайт
Размер потока : 652 Мбайт (6%)
Пропорции потока : 0.06392
Заголовок : DTS 5.1 / 768 kbps / Dub (Blu-ray CEE)
Язык : ru
Язык : Russian
Язык : Russian
Язык : ru
Язык : rus
Язык : ru
Default : Yes
Default : Да
Forced : No
Forced : Нет

Аудио #2
Кол-во : 234
Кол-во потоков такого типа : 3
Тип потока : Audio
Тип потока : Аудио
Идентификатор типа потока : 1
Позиция идентификатора типа потока : 2
StreamOrder : 2
Inform : Russian, 640 Кбит/сек, 48,0 КГц, 16 бит, 6 каналов, AC-3
Идентификатор : 3
Идентификатор : 3
Уникальный идентификатор : 12250720711965237632
Формат : AC-3
Формат/Информация : Audio Coding 3
Коммерческое название : AC-3
Расширение режима : CM (complete main)
Параметр Endianness формата : Big
Идентификатор кодека : A_AC3
Кодек : AC3
Кодек : AC3
Кодек/Семейство : AC3
Кодек/Информация : Dolby AC3
Продолжительность : 7123241
Продолжительность : 1 ч. 58 м.
Продолжительность : 1 ч. 58 м. 43 с. 241 мс.
Продолжительность : 1 ч. 58 м.
Продолжительность : 01:58:43.241
Вид битрейта : CBR
Вид битрейта : Постоянный
Битрейт : 640000
Битрейт : 640 Кбит/сек
Каналы : 6
Каналы : 6 каналов
Расположение каналов : Front: L C R, Side: L R, LFE
Расположение каналов : 3/2/0.1
Частота : 48000
Частота : 48,0 КГц
Количество образцов : 341915568
Разрешение : 16
Разрешение : 16 бит
Битовая глубина : 16
Битовая глубина : 16 бит
Метод сжатия : Lossy
Метод сжатия : С потерями
Задержка : 0
Задержка : 00:00:00.000
Задержка в оригинале : Container
Задержка в оригинале : Контейнер
Задержка видео : 0
Задержка видео : 0
Размер потока : 569859280
Размер потока : 543 Мбайт (5%)
Размер потока : 543 Мбайт
Размер потока : 543 Мбайт
Размер потока : 543 Мбайт
Размер потока : 543,5 Мбайт
Размер потока : 543 Мбайт (5%)
Пропорции потока : 0.05326
Заголовок : AC3 5.1 / 640 kbps / Dub (Blu-ray CEE)
Язык : ru
Язык : Russian
Язык : Russian
Язык : ru
Язык : rus
Язык : ru
Default : No
Default : Нет
Forced : No
Forced : Нет
bsid : 8
dialnorm : -31
dialnorm/String : -31 dB
acmod : 7
lfeon : 1
dialnorm_Average : -31
dialnorm_Average/String : -31 dB
dialnorm_Minimum : -31
dialnorm_Minimum/String : -31 dB
dialnorm_Maximum : -31
dialnorm_Maximum/String : -31 dB
dialnorm_Count : 2

Аудио #3
Кол-во : 222
Кол-во потоков такого типа : 3
Тип потока : Audio
Тип потока : Аудио
Идентификатор типа потока : 2
Позиция идентификатора типа потока : 3
StreamOrder : 3
Идентификатор : 4
Идентификатор : 4
Уникальный идентификатор : 3170012072
Формат : DTS
Формат/Информация : Digital Theater Systems
Коммерческое название : DTS
Режим : 16
Параметр Endianness формата : Big
Идентификатор кодека : A_DTS
Кодек : DTS
Кодек : DTS
Кодек/Семейство : DTS
Продолжительность : 7123241
Продолжительность : 1 ч. 58 м.
Продолжительность : 1 ч. 58 м. 43 с. 241 мс.
Продолжительность : 1 ч. 58 м.
Продолжительность : 01:58:43.241
Вид битрейта : CBR
Вид битрейта : Постоянный
Битрейт : 1509000
Битрейт : 1509 Кбит/сек
Каналы : 6
Каналы : 6 каналов
Расположение каналов : Front: L C R, Side: L R, LFE
Расположение каналов : 3/2/0.1
Частота : 48000
Частота : 48,0 КГц
Количество образцов : 341915568
Разрешение : 24
Разрешение : 24 бит
Битовая глубина : 24
Битовая глубина : 24 бит
Метод сжатия : Lossy
Метод сжатия : С потерями
Задержка : 11
Задержка : 11 мс.
Задержка : 11 мс.
Задержка : 11 мс.
Задержка : 00:00:00.011
Задержка в оригинале : Container
Задержка в оригинале : Контейнер
Задержка видео : 11
Задержка видео : 11 мс.
Задержка видео : 11 мс.
Задержка видео : 11 мс.
Задержка видео : 00:00:00.011
Задержка видео : 11
Задержка видео : 11 мс.
Задержка видео : 11 мс.
Задержка видео : 11 мс.
Задержка видео : 00:00:00.011
Размер потока : 1343621333
Размер потока : 1,25 Гбайт (13%)
Размер потока : 1 Гбайт
Размер потока : 1,3 Гбайт
Размер потока : 1,25 Гбайт
Размер потока : 1,251 Гбайт
Размер потока : 1,25 Гбайт (13%)
Пропорции потока : 0.12559
Заголовок : DTS 5.1 / 1536 kbps / Original
Язык : en
Язык : English
Язык : English
Язык : en
Язык : eng
Язык : en
Default : No
Default : Нет
Forced : No
Forced : Нет

Текст #1
Кол-во : 195
Кол-во потоков такого типа : 6
Тип потока : Text
Тип потока : Текст
Идентификатор типа потока : 0
Позиция идентификатора типа потока : 1
StreamOrder : 4
Inform : Russian, UTF-8
Идентификатор : 5
Идентификатор : 5
Уникальный идентификатор : 2181098682
Формат : UTF-8
Коммерческое название : UTF-8
Идентификатор кодека : S_TEXT/UTF8
Идентификатор кодека/Информация : UTF-8 Plain Text
Кодек : S_TEXT/UTF8
Кодек : UTF-8
Кодек/Информация : UTF-8 Plain Text
Заголовок : Forced
Язык : ru
Язык : Russian
Язык : Russian
Язык : ru
Язык : rus
Язык : ru
Default : Yes
Default : Да
Forced : No
Forced : Нет

Текст #2
Кол-во : 195
Кол-во потоков такого типа : 6
Тип потока : Text
Тип потока : Текст
Идентификатор типа потока : 1
Позиция идентификатора типа потока : 2
StreamOrder : 5
Inform : Russian, UTF-8
Идентификатор : 6
Идентификатор : 6
Уникальный идентификатор : 268714376
Формат : UTF-8
Коммерческое название : UTF-8
Идентификатор кодека : S_TEXT/UTF8
Идентификатор кодека/Информация : UTF-8 Plain Text
Кодек : S_TEXT/UTF8
Кодек : UTF-8
Кодек/Информация : UTF-8 Plain Text
Заголовок : Full
Язык : ru
Язык : Russian
Язык : Russian
Язык : ru
Язык : rus
Язык : ru
Default : No
Default : Нет
Forced : No
Forced : Нет

Текст #3
Кол-во : 195
Кол-во потоков такого типа : 6
Тип потока : Text
Тип потока : Текст
Идентификатор типа потока : 2
Позиция идентификатора типа потока : 3
StreamOrder : 6
Inform : Ukrainian, UTF-8
Идентификатор : 7
Идентификатор : 7
Уникальный идентификатор : 3728270985
Формат : UTF-8
Коммерческое название : UTF-8
Идентификатор кодека : S_TEXT/UTF8
Идентификатор кодека/Информация : UTF-8 Plain Text
Кодек : S_TEXT/UTF8
Кодек : UTF-8
Кодек/Информация : UTF-8 Plain Text
Заголовок : Full
Язык : uk
Язык : Ukrainian
Язык : Ukrainian
Язык : uk
Язык : ukr
Язык : uk
Default : No
Default : Нет
Forced : No
Forced : Нет

Текст #4
Кол-во : 195
Кол-во потоков такого типа : 6
Тип потока : Text
Тип потока : Текст
Идентификатор типа потока : 3
Позиция идентификатора типа потока : 4
StreamOrder : 7
Идентификатор : 8
Идентификатор : 8
Уникальный идентификатор : 2886129598
Формат : UTF-8
Коммерческое название : UTF-8
Идентификатор кодека : S_TEXT/UTF8
Идентификатор кодека/Информация : UTF-8 Plain Text
Кодек : S_TEXT/UTF8
Кодек : UTF-8
Кодек/Информация : UTF-8 Plain Text
Заголовок : Full
Язык : en
Язык : English
Язык : English
Язык : en
Язык : eng
Язык : en
Default : No
Default : Нет
Forced : No
Forced : Нет

Текст #5
Кол-во : 195
Кол-во потоков такого типа : 6
Тип потока : Text
Тип потока : Текст
Идентификатор типа потока : 4
Позиция идентификатора типа потока : 5
StreamOrder : 8
Идентификатор : 9
Идентификатор : 9
Уникальный идентификатор : 1405246356
Формат : UTF-8
Коммерческое название : UTF-8
Идентификатор кодека : S_TEXT/UTF8
Идентификатор кодека/Информация : UTF-8 Plain Text
Кодек : S_TEXT/UTF8
Кодек : UTF-8
Кодек/Информация : UTF-8 Plain Text
Заголовок : SDH
Язык : en
Язык : English
Язык : English
Язык : en
Язык : eng
Язык : en
Default : No
Default : Нет
Forced : No
Forced : Нет

Текст #6
Кол-во : 195
Кол-во потоков такого типа : 6
Тип потока : Text
Тип потока : Текст
Идентификатор типа потока : 5
Позиция идентификатора типа потока : 6
StreamOrder : 9
Идентификатор : 10
Идентификатор : 10
Уникальный идентификатор : 2574696584
Формат : UTF-8
Коммерческое название : UTF-8
Идентификатор кодека : S_TEXT/UTF8
Идентификатор кодека/Информация : UTF-8 Plain Text
Кодек : S_TEXT/UTF8
Кодек : UTF-8
Кодек/Информация : UTF-8 Plain Text
Заголовок : SDH (Colored)
Язык : en
Язык : English
Язык : English
Язык : en
Язык : eng
Язык : en
Default : No
Default : Нет
Forced : No
Forced : Нет

Меню
Кол-во : 97
Кол-во потоков такого типа : 1
Тип потока : Menu
Тип потока : Меню
Идентификатор типа потока : 0
Chapters_Pos_Begin : 77
Chapters_Pos_End : 97
00:00:00.000 : en:Chapter 1
00:04:27.558 : en:Chapter 2
00:11:12.088 : en:Chapter 3
00:16:27.820 : en:Chapter 4
00:20:11.835 : en:Chapter 5
00:26:52.319 : en:Chapter 6
00:31:02.944 : en:Chapter 7
00:36:10.626 : en:Chapter 8
00:43:36.613 : en:Chapter 9
00:50:14.511 : en:Chapter 10
00:54:59.421 : en:Chapter 11
00:59:54.048 : en:Chapter 12
01:09:57.735 : en:Chapter 13
01:13:59.017 : en:Chapter 14
01:19:12.247 : en:Chapter 15
01:24:17.385 : en:Chapter 16
01:33:00.825 : en:Chapter 17
01:38:55.554 : en:Chapter 18
01:44:41.608 : en:Chapter 19
01:48:38.303 : en:Chapter 20

скриншот   скриншот   скриншот   скриншот   скриншот   скриншот  

pb.wtf



Скачать 47 ронинов 3D через торрент http://pic.kartinco.top/images/6/zfppu.jpg Скачать фильм 47 ронинов 3D через торрент бесплантно в хорошем качестве Описание:Таинственный странник, преданный всеми, проданный в рабство, избранный судьбой вершить месть, станет одним из 47 воинов, бросивших ... 10 10 24
Info! Золотая раздача, скачанное не засчитывается.
Торрент: Зарегистрирован [2014-04-24 07:04] · скачан: 814 раз
Статус: √ проверено
Размер: 9.96 GB
Как cкачать? Как скачать 47 ронинов 3D через торрент | UTorrent

28-11-2019 20:33  

Отключить всю рекламу на сайте


19-10-2014 16:21 47 ронинов 3D Скачать торрент  

поддайте скорости...будьте любезны..pb.wtf



    Дорогой пользователь! Огромная просьба, поблагодарите релизера, оцените раздачу и оставьте свои комментарий, если Вы скачали 47 ронинов 3D через торрент бесплатно! Внесите свою лепту в развитие PiratBit!
    Комментировать посты могут только пользователи прошедшие не сложную регистрацию
    Показать сообщения:    

    47 ронинов 3D через торрент
    Скачать бесплатно 47 ронинов 3D
    47 ронинов 3D скачать торрент
    47 ронинов 3D смотреть онлайн
    Cкачать фильм 47 ронинов 3D бесплатно
    47 ронинов 3D скачать торрент в хорошем качестве
    47 ронинов 3D смотреть онлайн бесплатно в хорошем качестве


    Вы не можете начинать темы
    Вы не можете отвечать на сообщения
    Вы не можете редактировать свои сообщения
    Вы не можете удалять свои сообщения
    Вы не можете голосовать в опросах
    Вы не можете прикреплять файлы к сообщениям
    Вы можете скачивать файлы