Ссылка на приватное зеркало нашего сайта всего за 1$. Внимание количество ограничено!!!

2 сезон

iTunes

1 сезон

1

2 сезон

2 сезон

iTunes

1 сезон

RePack

30

Новинка

ВАЖНО

ИГРА 18+

pack

RePack

MK11
pack

Забери бонус

RePack

jed

!!Акция!!

Alien_Rage

RePack

fifa19

RePack

Assassins Creed: Odyssey

RePack

NEED FOR SPEED™ PAYBACK

4 сезон

9 сезон

Бесстыжие 9 сезон

Все сериалы

все сериалы на PB.wtf

RePack

FAR CRY 5
  

Metallica - Master Of Puppets (Japan SHM-CD) 2010 / FLAC (tracks+.cue) / lossless / Thrash / Metal pb.wtf

Metallica - Master Of Puppets через торрент pb.wtf

Размер: 672 MB | Добавлен: 6 лет 7 мес. назад | Торрент скачан:141 раз
Скачать  

24-04-2014 10:04 Metallica - Master Of Puppets Скачать торрент  

Metallica - Master Of Puppets (Japan SHM-CD) 2010
Страна-производитель диска: Japan
Год Выпуска: 2010
Жанр: Thrash / Metal
Издатель (лейбл): Universal Music Japan
Номер по каталогу: UICY-94664
Страна: USA
Продолжительность: 00:54:42
Аудиокодек: FLAC (*.flac)
Тип рипа: tracks+.cue
Битрейт: lossless
Наличие сканов в содержимом раздачи: да, 600 dpi (PNG)
Master of Puppets («Кукловод») — третий студийный альбом американской трэш-метал-группы Metallica, выпущен 3 марта 1986 года на лейбле Elektra Records. Это последний альбом Metallica, в записи которого принимал участие бас-гитарист Клифф Бёртон. Альбом достиг 29-го места в чарте «The Billboard magazine 200» и 41-го места в чарте Великобритании. Продажи в США к данному моменту составляют около 6 миллионов копий. Master of Puppets является культовым альбомом для трэш-метала.Master of Puppets занял 167 место из 500 в списке 500 величайших альбомов всех времён журнала «Rolling Stone». Альбом также входит в список 101 лучших альбомов журнала «Time». Журнал Metal Hammer включил Master of Puppets в 200 лучших рок-альбомов всех времён. Master of Puppets занял первое место в рейтинге 100 лучших альбомов Metal-Rules и 25 лучших альбомов метала IGN. Master of Puppets признан многими критиками как один из величайших релизов в истории метала. По версии New Musical Express альбом занимает 462-е место среди 500 величайших альбомов всех времён.
  • 01. Battery
  • 02. Master Of Puppets
  • 03. The Thing That Should Not Be
  • 04. Welcome Home (Sanitarium)
  • 05. Disposable Heroes
  • 06. Leper Messiah
  • 07. Orion
  • 08. Damage,Inc.
скриншот  

X Lossless Decoder version 20100926 (123.1)

XLD extraction logfile from 2010-10-09 00:49:51 +0600

Metallica / Master Of Puppets

Used drive : HL-DT-ST DVDRW GS23N (revision SB07)

Use cdparanoia mode : YES (CDParanoia III 10.2 engine)
Disable audio cache : OK for the drive with cache less than 2750KB
Make use of C2 pointers : NO
Read offset correction : 667
Max retry count : 100
Gap status : Analyzed, Appended

TOC of the extracted CD
Track | Start | Length | Start sector | End sector
---------------------------------------------------------
1 | 00:00:00 | 05:12:07 | 0 | 23406
2 | 05:12:07 | 08:34:39 | 23407 | 61995
3 | 13:46:46 | 06:35:59 | 61996 | 91679
4 | 20:22:30 | 06:28:37 | 91680 | 120816
5 | 26:50:67 | 08:15:63 | 120817 | 158004
6 | 35:06:55 | 05:39:19 | 158005 | 183448
7 | 40:45:74 | 08:27:56 | 183449 | 221529
8 | 49:13:55 | 05:28:48 | 221530 | 246177

All Tracks
Album gain : -10.17 dB
Peak : 0.999359

Track 01
Filename : /Users/gubarenko/Desktop/Metallica - Master Of Puppets/01 - Battery.flac
Pre-gap length : 00:02:00

Track gain : -10.98 dB
Peak : 0.999298
CRC32 hash (test run) : AA370C06
CRC32 hash : AA370C06
CRC32 hash (skip zero) : 81B6E413
AccurateRip signature : 61251749
->Track not present in AccurateRip database.
Statistics
Read error : 0
Skipped (treated as error) : 0
Edge jitter error (maybe fixed) : 0
Atom jitter error (maybe fixed) : 0
Drift error (maybe fixed) : 0
Dropped bytes error (maybe fixed) : 0
Duplicated bytes error (maybe fixed) : 0
Inconsistency in error sectors : 0

Track 02
Filename : /Users/gubarenko/Desktop/Metallica - Master Of Puppets/02 - Master Of Puppets.flac
Pre-gap length : 00:01:12

Track gain : -10.23 dB
Peak : 0.999329
CRC32 hash (test run) : 254E5FC8
CRC32 hash : 254E5FC8
CRC32 hash (skip zero) : CA17CD2C
AccurateRip signature : E489AD55
->Track not present in AccurateRip database.
Statistics
Read error : 0
Skipped (treated as error) : 0
Edge jitter error (maybe fixed) : 0
Atom jitter error (maybe fixed) : 0
Drift error (maybe fixed) : 0
Dropped bytes error (maybe fixed) : 0
Duplicated bytes error (maybe fixed) : 0
Inconsistency in error sectors : 0

Track 03
Filename : /Users/gubarenko/Desktop/Metallica - Master Of Puppets/03 - The Thing That Should Not Be.flac
Pre-gap length : 00:01:73

Track gain : -9.21 dB
Peak : 0.999329
CRC32 hash (test run) : 2953FE94
CRC32 hash : 2953FE94
CRC32 hash (skip zero) : 1E719B1B
AccurateRip signature : 5922CB60
->Track not present in AccurateRip database.
Statistics
Read error : 0
Skipped (treated as error) : 0
Edge jitter error (maybe fixed) : 0
Atom jitter error (maybe fixed) : 0
Drift error (maybe fixed) : 0
Dropped bytes error (maybe fixed) : 0
Duplicated bytes error (maybe fixed) : 0
Inconsistency in error sectors : 0

Track 04
Filename : /Users/gubarenko/Desktop/Metallica - Master Of Puppets/04 - Welcome Home (Sanitarium).flac
Pre-gap length : 00:02:39

Track gain : -9.24 dB
Peak : 0.999359
CRC32 hash (test run) : 253B33CA
CRC32 hash : 253B33CA
CRC32 hash (skip zero) : A7D1246A
AccurateRip signature : D8A89F63
->Track not present in AccurateRip database.
Statistics
Read error : 0
Skipped (treated as error) : 0
Edge jitter error (maybe fixed) : 0
Atom jitter error (maybe fixed) : 0
Drift error (maybe fixed) : 0
Dropped bytes error (maybe fixed) : 0
Duplicated bytes error (maybe fixed) : 0
Inconsistency in error sectors : 0

Track 05
Filename : /Users/gubarenko/Desktop/Metallica - Master Of Puppets/05 - Disposable Heroes.flac
Pre-gap length : 00:01:60

Track gain : -10.38 dB
Peak : 0.999359
CRC32 hash (test run) : 89DD2A33
CRC32 hash : 89DD2A33
CRC32 hash (skip zero) : B0A6A05B
AccurateRip signature : C130DC54
->Track not present in AccurateRip database.
Statistics
Read error : 0
Skipped (treated as error) : 0
Edge jitter error (maybe fixed) : 0
Atom jitter error (maybe fixed) : 0
Drift error (maybe fixed) : 0
Dropped bytes error (maybe fixed) : 0
Duplicated bytes error (maybe fixed) : 0
Inconsistency in error sectors : 0

Track 06
Filename : /Users/gubarenko/Desktop/Metallica - Master Of Puppets/06 - Leper Messiah.flac
Pre-gap length : 00:00:58

Track gain : -10.46 dB
Peak : 0.999329
CRC32 hash (test run) : 5E3E4AA0
CRC32 hash : 5E3E4AA0
CRC32 hash (skip zero) : 018C7285
AccurateRip signature : B6E29DAD
->Track not present in AccurateRip database.
Statistics
Read error : 0
Skipped (treated as error) : 0
Edge jitter error (maybe fixed) : 0
Atom jitter error (maybe fixed) : 0
Drift error (maybe fixed) : 0
Dropped bytes error (maybe fixed) : 0
Duplicated bytes error (maybe fixed) : 0
Inconsistency in error sectors : 0

Track 07
Filename : /Users/gubarenko/Desktop/Metallica - Master Of Puppets/07 - Orion.flac

Track gain : -9.11 dB
Peak : 0.999329
CRC32 hash (test run) : A5D392B1
CRC32 hash : A5D392B1
CRC32 hash (skip zero) : 4F635E4A
AccurateRip signature : 3DEC3367
->Track not present in AccurateRip database.
Statistics
Read error : 0
Skipped (treated as error) : 0
Edge jitter error (maybe fixed) : 0
Atom jitter error (maybe fixed) : 0
Drift error (maybe fixed) : 0
Dropped bytes error (maybe fixed) : 0
Duplicated bytes error (maybe fixed) : 0
Inconsistency in error sectors : 0

Track 08
Filename : /Users/gubarenko/Desktop/Metallica - Master Of Puppets/08 - Damage, Inc..flac
Pre-gap length : 00:03:68

Track gain : -9.13 dB
Peak : 0.999329
CRC32 hash (test run) : 83AF5317
CRC32 hash : 83AF5317
CRC32 hash (skip zero) : CB79C4ED
AccurateRip signature : 1ABCD29B
->Track not present in AccurateRip database.
Statistics
Read error : 0
Skipped (treated as error) : 0
Edge jitter error (maybe fixed) : 0
Atom jitter error (maybe fixed) : 0
Drift error (maybe fixed) : 0
Dropped bytes error (maybe fixed) : 0
Duplicated bytes error (maybe fixed) : 0
Inconsistency in error sectors : 0

No errors occurred

End of status report

TITLE "Master Of Puppets"
PERFORMER "Metallica"
CATALOG 0042283814127
REM DATE 1986
REM DISCID 600CD208
FILE "01 - Battery.wav" WAVE
TRACK 01 AUDIO
TITLE "Battery"
ISRC GBAMC9900024
REM COMMENT "UICY-94664
Brought to you by gubarenko.me"
INDEX 01 00:00:00
TRACK 02 AUDIO
TITLE "Master Of Puppets"
ISRC GBAMC8600001
INDEX 00 05:10:70
FILE "02 - Master Of Puppets.wav" WAVE
INDEX 01 00:00:00
TRACK 03 AUDIO
TITLE "The Thing That Should Not Be"
ISRC GBAMC8600003
INDEX 00 08:32:41
FILE "03 - The Thing That Should Not Be.wav" WAVE
INDEX 01 00:00:00
TRACK 04 AUDIO
TITLE "Welcome Home (Sanitarium)"
ISRC GBAMC8600002
INDEX 00 06:33:20
FILE "04 - Welcome Home (Sanitarium).wav" WAVE
INDEX 01 00:00:00
TRACK 05 AUDIO
TITLE "Disposable Heroes"
ISRC GBAMC8600005
INDEX 00 06:26:52
FILE "05 - Disposable Heroes.wav" WAVE
INDEX 01 00:00:00
TRACK 06 AUDIO
TITLE "Leper Messiah"
ISRC GBAMC8600006
INDEX 00 08:15:05
FILE "06 - Leper Messiah.wav" WAVE
INDEX 01 00:00:00
FILE "07 - Orion.wav" WAVE
TRACK 07 AUDIO
TITLE "Orion"
ISRC GBAMC8600008
REM COMMENT "UICY-94664
Brought to you by gubarenko.me"
INDEX 01 00:00:00
TRACK 08 AUDIO
TITLE "Damage, Inc."
ISRC GBAMC8600008
INDEX 00 08:23:63
FILE "08 - Damage, Inc..wav" WAVE
INDEX 01 00:00:00
pb.wtf



Скачать Metallica - Master Of Puppets через торрент http://i.imgur.com/vOzQR1x.jpg Скачать фильм Metallica - Master Of Puppets через торрент бесплантно в хорошем качестве Metallica - Master Of Puppets (Japan SHM-CD) 2010 Страна-производитель диска: Japan Год Выпуска: 2010Жанр: Thrash / MetalИздатель ... 10 10 9
Торрент: Зарегистрирован [2014-04-24 10:04] · скачан: 141 раз
Статус: √ проверено
Размер: 672 MB
Как cкачать? Как скачать Metallica - Master Of Puppets через торрент | qTorrent

% Раздел Тема Автор DL S | L
Heavy, Power, Progressive (lossless) [ 7.29 GB ] Metallica - Master Of Puppets - 2017 /FLAC/ image +.cue/ lossless/ Thrash Metal sergej644 Скачать
1 | 0

28-11-2019 20:33  

Отключить всю рекламу на сайте

24-04-2014 11:17 Metallica - Master Of Puppets Скачать торрент  

Такой шедевральный альбом низковато заценили)pb.wtf



    Дорогой пользователь! Огромная просьба, поблагодарите релизера, оцените раздачу и оставьте свои комментарий, если Вы скачали Metallica - Master Of Puppets через торрент бесплатно! Внесите свою лепту в развитие PiratBit!
    Комментировать посты могут только пользователи прошедшие не сложную регистрацию
    Показать сообщения:    

    Metallica - Master Of Puppets через торрент
    Скачать бесплатно Metallica - Master Of Puppets
    Metallica - Master Of Puppets скачать торрент
    Metallica - Master Of Puppets смотреть онлайн
    Cкачать фильм Metallica - Master Of Puppets бесплатно
    Metallica - Master Of Puppets скачать торрент в хорошем качестве
    Metallica - Master Of Puppets смотреть онлайн бесплатно в хорошем качестве


    Вы не можете начинать темы
    Вы не можете отвечать на сообщения
    Вы не можете редактировать свои сообщения
    Вы не можете удалять свои сообщения
    Вы не можете голосовать в опросах
    Вы не можете прикреплять файлы к сообщениям
    Вы можете скачивать файлы