Ссылка на приватное зеркало нашего сайта всего за 1$. Внимание количество ограничено!!!

2 сезон

iTunes

1 сезон

1

iTunes

iTunes

iTunes

1 сезон

RePack

30

ИГРА 18+

pack

ВАЖНО

!!Акция!!

Alien_RageХит недели

RePack

MK11
pack

Забери бонус

RePack

jed

!!Акция!!

Alien_Rage

RePack

fifa19

RePack

Assassins Creed: Odyssey

RePack

NEED FOR SPEED™ PAYBACK

4 сезон

9 сезон

Бесстыжие 9 сезон

Все сериалы

все сериалы на PB.wtf

RePack

FAR CRY 5
  

Короткий срок 12 / Short Term 12 (Дестин Креттон) [2013, драма, BDRip 1080p ] MVO pb.wtf

Короткий срок 12 через торрент pb.wtf

Размер: 14.32 GB | Добавлен: 6 лет 5 мес. назад | Торрент скачан:53 раза
Скачать  

24-04-2014 11:20 Короткий срок 12 Скачать торрент  

Информация о фильме
Название: Короткий срок 12
Оригинальное название: Short Term 12
Жанр: драма
Год выпуска: 2013
Выпущено: США
Продолжительность: 01:36:49
Озвучивание: Профессиональное (многоголосое)[online movies]
Авторское (одноголосое) [А.Матвеев]
Субтитры: Russian 2x [А.Матвеев] & [Dr.pro], English
Режиссер: Дестин Креттон
В ролях: Бри Ларсон, Джон Галлахер мл., Стефани Беатриз, Кейтлин Девер, Рами Малек, Алекс Кэллоуэй, Кевин Эрнандез, Лидия Дю Во, Лейкит Стэнфилд, Франц Тернер

Описание:
Мэйсон, Нэйт и Грэйс устраиваются на работу в социальный центр для трудных подростков, в качестве воспитателей. Они пришли сюда не столько из-за желания помочь детям, сколько из-за хорошей заработной платы и медицинской страховки. Этот центр отличает от других тем, что находящиеся здесь подростки не могут покинуть его по собственному желанию. Каждый день воспитатели контролируют действия трудных детей, переживая за них и помогая справиться с различными трудностями. В один прекрасный момент Грэйс начинает заботиться об одной агрессивной девочке, благодаря чему она начинает избавляться и от своих ошибок, допущенных в прошлом, которое так же было довольно непростым...



Файл

Качество: BDRip 1080p [SbR]
Формат: MKV
Видео кодек: H.264
Аудио кодек: DTS,AC3
Видео: 17500 kb/s, 1920x1036, 23,976 кадра/сек
Аудио:
1.Russian [online movies]: AC3, 192 kb/s (2 ch) 48,0 КГц
2.Russian [А.Матвеев]: DTS, 1510 kb/s (6 ch) 48,0 КГц
3.English: DTS, 1510 kb/s (6 ch) 48,0 КГц

Дополнительно: Сохранены оригинальные чаптеры как на Blu-ray

Скачать: Сэмпл

Релиз группы:


Общее
Short.Term.12.2013.Blu.Ray.1080p.CINEMANIA.mkv
Формат : Matroska
Версия формата : Version 4 / Version 2
Размер файла : 14,3 Гбайт
Продолжительность : 1 ч. 36 м.
Общий поток : 21,1 Мбит/сек
Название фильма : Release Group CINEMANIA
Дата кодирования : UTC 2014-04-24 08:26:19
Программа кодирования : mkvmerge v6.9.1 ('Blue Panther') 64bit built on Apr 18 2014 18:23:38
Библиотека кодирования : libebml v1.3.0 + libmatroska v1.4.1

Видео
Идентификатор : 1
Формат : AVC
Формат/Информация : Advanced Video Codec
Профиль формата : High@L4.1
Параметр CABAC формата : Да
Параметр ReFrames формата : 4 кадра
Идентификатор кодека : V_MPEG4/ISO/AVC
Продолжительность : 1 ч. 36 м.
Битрейт : 17,5 Мбит/сек
Ширина : 1920 пикселей
Высота : 1036 пикселей
Соотношение сторон : 1,85:1
Режим частоты кадров : Постоянный
Частота кадров : 23,976 кадра/сек
Цветовое пространство : YUV
Субдискретизация насыщенности : 4:2:0
Битовая глубина : 8 бит
Тип развёртки : Прогрессивная
Бит/(Пиксели*Кадры) : 0.367
Размер потока : 11,9 Гбайт (83%)
Заголовок : Release Group CINEMANIA
Библиотека кодирования : x264 core 140 r2377+40 929f149 tMod [8-bit@all X86_64]
Настройки программы : cabac=1 / ref=4 / deblock=1:-2:-1 / analyse=0x3:0x133 / me=tesa / subme=11 / psy=1 / fade_compensate=0.00 / psy_rd=1.00:0.00 / mixed_ref=1 / me_range=32 / chroma_me=1 / trellis=2 / 8x8dct=1 / cqm=0 / deadzone=21,11 / fast_pskip=0 / chroma_qp_offset=-2 / threads=12 / lookahead_threads=3 / sliced_threads=0 / nr=0 / decimate=0 / interlaced=0 / bluray_compat=0 / constrained_intra=0 / fgo=0 / bframes=16 / b_pyramid=2 / b_adapt=2 / b_bias=0 / direct=3 / weightb=1 / open_gop=0 / weightp=2 / keyint=250 / keyint_min=23 / scenecut=40 / intra_refresh=0 / rc=crf / mbtree=0 / crf=16.5500 / qcomp=0.75 / qpmin=0:0:0 / qpmax=69:69:69 / qpstep=4 / ip_ratio=1.30 / pb_ratio=1.30 / aq=1:1.00 / aq-sensitivity=10.00 / aq-factor=1.00:1.00:1.00 / aq2=1:0.60 / aq2-sensitivity=15.00 / aq2-factor=1.00:1.00:1.00 / aq3=0
Язык : English
Default : Да
Forced : Нет

Аудио #1
Идентификатор : 2
Формат : AC-3
Формат/Информация : Audio Coding 3
Расширение режима : CM (complete main)
Параметр Endianness формата : Big
Идентификатор кодека : A_AC3
Продолжительность : 1 ч. 36 м.
Вид битрейта : Постоянный
Битрейт : 192 Кбит/сек
Каналы : 2 канала
Расположение каналов : Front: L R
Частота : 48,0 КГц
Битовая глубина : 16 бит
Метод сжатия : С потерями
Размер потока : 133 Мбайт (1%)
Заголовок : online movies
Язык : Russian
Default : Да
Forced : Да

Аудио #2
Идентификатор : 3
Формат : DTS
Формат/Информация : Digital Theater Systems
Режим : 16
Параметр Endianness формата : Big
Идентификатор кодека : A_DTS
Продолжительность : 1 ч. 36 м.
Вид битрейта : Постоянный
Битрейт : 1510 Кбит/сек
Каналы : 6 каналов
Расположение каналов : Front: L C R, Side: L R, LFE
Частота : 48,0 КГц
Битовая глубина : 24 бит
Метод сжатия : С потерями
Размер потока : 1,02 Гбайт (7%)
Заголовок : А.Матвеев
Язык : Russian
Default : Нет
Forced : Нет

Аудио #3
Идентификатор : 4
Формат : DTS
Формат/Информация : Digital Theater Systems
Режим : 16
Параметр Endianness формата : Big
Идентификатор кодека : A_DTS
Продолжительность : 1 ч. 36 м.
Вид битрейта : Постоянный
Битрейт : 1509 Кбит/сек
Каналы : 6 каналов
Расположение каналов : Front: L C R, Side: L R, LFE
Частота : 48,0 КГц
Битовая глубина : 24 бит
Метод сжатия : С потерями
Размер потока : 1,02 Гбайт (7%)
Язык : English
Default : Нет
Forced : Нет

Текст #1
Идентификатор : 5
Формат : UTF-8
Идентификатор кодека : S_TEXT/UTF8
Идентификатор кодека/Информация : UTF-8 Plain Text
Заголовок : А.Матвеев
Язык : Russian
Default : Нет
Forced : Нет

Текст #2
Идентификатор : 6
Формат : UTF-8
Идентификатор кодека : S_TEXT/UTF8
Идентификатор кодека/Информация : UTF-8 Plain Text
Заголовок : Dr.pro
Язык : Russian
Default : Нет
Forced : Нет

Текст #3
Идентификатор : 7
Формат : UTF-8
Идентификатор кодека : S_TEXT/UTF8
Идентификатор кодека/Информация : UTF-8 Plain Text
Язык : English
Default : Нет
Forced : Нет

Меню
00:00:00.000 : en:Mason's Story
00:06:12.872 : en:Introductions
00:14:07.597 : en:Enough for Two
00:22:01.487 : en:Marcus
00:31:56.123 : en:We Can Do This
00:40:02.775 : en:Cupcakes
00:49:31.260 : en:Nina and the Shark
00:59:37.199 : en:Families
01:08:05.915 : en:Emergency
01:17:39.989 : en:Helping Jayden
01:25:47.809 : en:So Unbelievable
01:33:03.077 : en:Credits
pb.wtf



Скачать Короткий срок 12 через торрент http://5.firepic.org/5/images/2014-04/24/ek21csipe4lw.jpg Скачать фильм Короткий срок 12 через торрент бесплантно в хорошем качестве Описание: Мэйсон, Нэйт и Грэйс устраиваются на работу в социальный центр для трудных подростков, в качестве воспитателей. Они пришли сюда ... 9.2 10 5
Info! Золотая раздача, скачанное не засчитывается.
Торрент: Зарегистрирован [2014-04-24 11:20] · скачан: 53 раз
Статус: √ проверено
Размер: 14.32 GB
Как cкачать? Как скачать Короткий срок 12 через торрент | qTorrent

28-11-2019 20:33  

Отключить всю рекламу на сайте

24-04-2014 11:38 Короткий срок 12 Скачать торрент  

С проф. озвучкой но поменьше размерчик когда будет?pb.wtf



25-04-2014 17:06 Короткий срок 12 Скачать торрент  

как фильмец???pb.wtf



    Дорогой пользователь! Огромная просьба, поблагодарите релизера, оцените раздачу и оставьте свои комментарий, если Вы скачали Короткий срок 12 через торрент бесплатно! Внесите свою лепту в развитие PiratBit!
    Комментировать посты могут только пользователи прошедшие не сложную регистрацию
    Показать сообщения:    

    Короткий срок 12 через торрент
    Скачать бесплатно Короткий срок 12
    Короткий срок 12 скачать торрент
    Короткий срок 12 смотреть онлайн
    Cкачать фильм Короткий срок 12 бесплатно
    Короткий срок 12 скачать торрент в хорошем качестве
    Короткий срок 12 смотреть онлайн бесплатно в хорошем качестве


    Вы не можете начинать темы
    Вы не можете отвечать на сообщения
    Вы не можете редактировать свои сообщения
    Вы не можете удалять свои сообщения
    Вы не можете голосовать в опросах
    Вы не можете прикреплять файлы к сообщениям
    Вы можете скачивать файлы