Ссылка на приватное зеркало нашего сайта всего за 1$. Внимание количество ограничено!!!

2 сезон

iTunes

1 сезон

1

2 сезон

2 сезон

iTunes

1 сезон

RePack

30

Ultimate

ВАЖНО

ИГРА 18+

pack

RePack

MK11
pack

Забери бонус

RePack

jed

!!Акция!!

Alien_Rage

RePack

fifa19

RePack

Assassins Creed: Odyssey

RePack

NEED FOR SPEED™ PAYBACK

4 сезон

9 сезон

Бесстыжие 9 сезон

Все сериалы

все сериалы на PB.wtf

RePack

FAR CRY 5
  

Metallica - Load (Japan SHM-CD) 2010 / FLAC (tracks+.cue) / lossless / Thrash / Metal pb.wtf

Metallica - Load через торрент pb.wtf

Размер: 992 MB | Добавлен: 6 лет 7 мес. назад | Торрент скачан:77 раз
Скачать  

24-04-2014 11:31 Metallica - Load Скачать торрент  

Metallica - Load (Japan SHM-CD) 2010
Страна-производитель диска: Japan
Год Выпуска: 2010
Жанр: Thrash / Metal
Издатель (лейбл): Universal Music Japan
Номер по каталогу: UICY-94667
Страна: USA
Продолжительность: 01:18:58
Аудиокодек: FLAC (*.flac)
Тип рипа: tracks+.cue
Битрейт: lossless
Наличие сканов в содержимом раздачи: да, 600 dpi (PNG)
Load (рус. «Груз, тяжесть, выстрел») — шестой студийный альбом метал-группы Metallica, вышедший 4 июня 1996 года на лейбле Elektra Records. За первую неделю было продано 680 000 копий (что ставит его на первое место среди остальных альбомов Metallica по объёму продаж за неделю) и дебютировал (и находился в течение четырёх недель подряд) на #1 в Billboard 200. Альбом распродан более чем в 5 миллионов копий по всему миру и сертифицирован RIAA как 5x платиновый.
  • 1. Ain't My Bitch
  • 2. 2 x 4
  • 3. The House Jack Built
  • 4. Until It Sleeps
  • 5. King Nothing
  • 6. Hero of the Day
  • 7. Bleeding Me
  • 8. Cure
  • 9. Poor Twisted Me
  • 10. Wasting My Hate
  • 11. Mama Said
  • 12. Thorn Within
  • 13. Ronnie
  • 14. The Outlaw Torn
скриншот  

X Lossless Decoder version 20100926 (123.1)

XLD extraction logfile from 2010-10-09 14:07:52 +0600

Metallica / Load

Used drive : HL-DT-ST DVDRW GS23N (revision SB07)

Use cdparanoia mode : YES (CDParanoia III 10.2 engine)
Disable audio cache : OK for the drive with cache less than 2750KB
Make use of C2 pointers : NO
Read offset correction : 667
Max retry count : 100
Gap status : Analyzed, Appended

TOC of the extracted CD
Track | Start | Length | Start sector | End sector
---------------------------------------------------------
1 | 00:00:00 | 05:04:30 | 0 | 22829
2 | 05:04:30 | 05:28:15 | 22830 | 47444
3 | 10:32:45 | 06:38:65 | 47445 | 77359
4 | 17:11:35 | 04:29:50 | 77360 | 97584
5 | 21:41:10 | 05:28:03 | 97585 | 122187
6 | 27:09:13 | 04:21:67 | 122188 | 141829
7 | 31:31:05 | 08:17:70 | 141830 | 179174
8 | 39:49:00 | 04:54:23 | 179175 | 201247
9 | 44:43:23 | 04:00:00 | 201248 | 219247
10 | 48:43:23 | 03:57:17 | 219248 | 237039
11 | 52:40:40 | 05:19:53 | 237040 | 261017
12 | 58:00:18 | 05:51:50 | 261018 | 287392
13 | 63:51:68 | 05:17:10 | 287393 | 311177
14 | 69:09:03 | 09:48:50 | 311178 | 355327

All Tracks
Album gain : -8.67 dB
Peak : 0.999969

Track 01
Filename : /Users/gubarenko/Desktop/Metallica - Load/01 - Ain't My Bitch.flac
Pre-gap length : 00:02:00

Track gain : -9.38 dB
Peak : 0.999969
CRC32 hash (test run) : FBBF1308
CRC32 hash : FBBF1308
CRC32 hash (skip zero) : BD992725
AccurateRip signature : 4F59A549
->Track not present in AccurateRip database.
Statistics
Read error : 0
Skipped (treated as error) : 0
Edge jitter error (maybe fixed) : 0
Atom jitter error (maybe fixed) : 0
Drift error (maybe fixed) : 0
Dropped bytes error (maybe fixed) : 0
Duplicated bytes error (maybe fixed) : 0
Inconsistency in error sectors : 0

Track 02
Filename : /Users/gubarenko/Desktop/Metallica - Load/02 - 2 x 4.flac

Track gain : -8.85 dB
Peak : 0.999969
CRC32 hash (test run) : 3089FAB9
CRC32 hash : 3089FAB9
CRC32 hash (skip zero) : BF082151
AccurateRip signature : B84A4DDC
->Track not present in AccurateRip database.
Statistics
Read error : 0
Skipped (treated as error) : 0
Edge jitter error (maybe fixed) : 0
Atom jitter error (maybe fixed) : 0
Drift error (maybe fixed) : 0
Dropped bytes error (maybe fixed) : 0
Duplicated bytes error (maybe fixed) : 0
Inconsistency in error sectors : 0

Track 03
Filename : /Users/gubarenko/Desktop/Metallica - Load/03 - The House Jack Built.flac

Track gain : -7.96 dB
Peak : 0.999969
CRC32 hash (test run) : B3018132
CRC32 hash : B3018132
CRC32 hash (skip zero) : 87AA10F4
AccurateRip signature : C603D66B
->Track not present in AccurateRip database.
Statistics
Read error : 0
Skipped (treated as error) : 0
Edge jitter error (maybe fixed) : 0
Atom jitter error (maybe fixed) : 0
Drift error (maybe fixed) : 0
Dropped bytes error (maybe fixed) : 0
Duplicated bytes error (maybe fixed) : 0
Inconsistency in error sectors : 0

Track 04
Filename : /Users/gubarenko/Desktop/Metallica - Load/04 - Until It Sleeps.flac

Track gain : -10.06 dB
Peak : 0.999969
CRC32 hash (test run) : 661F8AD6
CRC32 hash : 661F8AD6
CRC32 hash (skip zero) : 7DF6C554
AccurateRip signature : B6B6A8F4
->Track not present in AccurateRip database.
Statistics
Read error : 0
Skipped (treated as error) : 0
Edge jitter error (maybe fixed) : 0
Atom jitter error (maybe fixed) : 0
Drift error (maybe fixed) : 0
Dropped bytes error (maybe fixed) : 0
Duplicated bytes error (maybe fixed) : 0
Inconsistency in error sectors : 0

Track 05
Filename : /Users/gubarenko/Desktop/Metallica - Load/05 - King Nothing.flac

Track gain : -8.63 dB
Peak : 0.999969
CRC32 hash (test run) : 4DFEA56D
CRC32 hash : 4DFEA56D
CRC32 hash (skip zero) : 365EB642
AccurateRip signature : 3B2F1BF5
->Track not present in AccurateRip database.
Statistics
Read error : 0
Skipped (treated as error) : 0
Edge jitter error (maybe fixed) : 0
Atom jitter error (maybe fixed) : 0
Drift error (maybe fixed) : 0
Dropped bytes error (maybe fixed) : 0
Duplicated bytes error (maybe fixed) : 0
Inconsistency in error sectors : 0

Track 06
Filename : /Users/gubarenko/Desktop/Metallica - Load/06 - Hero Of The Day.flac

Track gain : -7.66 dB
Peak : 0.999969
CRC32 hash (test run) : BA7D3D7D
CRC32 hash : BA7D3D7D
CRC32 hash (skip zero) : 32BF1671
AccurateRip signature : 7058569A
->Track not present in AccurateRip database.
Statistics
Read error : 0
Skipped (treated as error) : 0
Edge jitter error (maybe fixed) : 1
Atom jitter error (maybe fixed) : 1
Drift error (maybe fixed) : 0
Dropped bytes error (maybe fixed) : 0
Duplicated bytes error (maybe fixed) : 0
Inconsistency in error sectors : 0

Track 07
Filename : /Users/gubarenko/Desktop/Metallica - Load/07 - Bleeding Me.flac

Track gain : -8.18 dB
Peak : 0.999969
CRC32 hash (test run) : 6B57B596
CRC32 hash : 6B57B596
CRC32 hash (skip zero) : CB257FEE
AccurateRip signature : 231764A9
->Track not present in AccurateRip database.
Statistics
Read error : 0
Skipped (treated as error) : 0
Edge jitter error (maybe fixed) : 0
Atom jitter error (maybe fixed) : 0
Drift error (maybe fixed) : 0
Dropped bytes error (maybe fixed) : 0
Duplicated bytes error (maybe fixed) : 0
Inconsistency in error sectors : 0

Track 08
Filename : /Users/gubarenko/Desktop/Metallica - Load/08 - Cure.flac

Track gain : -8.16 dB
Peak : 0.999969
CRC32 hash (test run) : F670B3AA
CRC32 hash : F670B3AA
CRC32 hash (skip zero) : 46A2F2A5
AccurateRip signature : E404BD8C
->Track not present in AccurateRip database.
Statistics
Read error : 0
Skipped (treated as error) : 0
Edge jitter error (maybe fixed) : 0
Atom jitter error (maybe fixed) : 0
Drift error (maybe fixed) : 0
Dropped bytes error (maybe fixed) : 0
Duplicated bytes error (maybe fixed) : 0
Inconsistency in error sectors : 0

Track 09
Filename : /Users/gubarenko/Desktop/Metallica - Load/09 - Poor Twisted Me.flac

Track gain : -9.36 dB
Peak : 0.999969
CRC32 hash (test run) : 4E8BCE86
CRC32 hash : 4E8BCE86
CRC32 hash (skip zero) : 34A932B0
AccurateRip signature : 536F735E
->Track not present in AccurateRip database.
Statistics
Read error : 0
Skipped (treated as error) : 0
Edge jitter error (maybe fixed) : 0
Atom jitter error (maybe fixed) : 0
Drift error (maybe fixed) : 0
Dropped bytes error (maybe fixed) : 0
Duplicated bytes error (maybe fixed) : 0
Inconsistency in error sectors : 0

Track 10
Filename : /Users/gubarenko/Desktop/Metallica - Load/10 - Wasting My Hate.flac

Track gain : -8.26 dB
Peak : 0.999969
CRC32 hash (test run) : 6D4C81E7
CRC32 hash : 6D4C81E7
CRC32 hash (skip zero) : 7C74517B
AccurateRip signature : D4EA7E2C
->Track not present in AccurateRip database.
Statistics
Read error : 0
Skipped (treated as error) : 0
Edge jitter error (maybe fixed) : 1
Atom jitter error (maybe fixed) : 0
Drift error (maybe fixed) : 0
Dropped bytes error (maybe fixed) : 1
Duplicated bytes error (maybe fixed) : 1
Inconsistency in error sectors : 0

Track 11
Filename : /Users/gubarenko/Desktop/Metallica - Load/11 - Mama Said.flac

Track gain : -7.81 dB
Peak : 0.999969
CRC32 hash (test run) : 353F8D36
CRC32 hash : 353F8D36
CRC32 hash (skip zero) : 6B01F303
AccurateRip signature : 63B27EFE
->Track not present in AccurateRip database.
Statistics
Read error : 0
Skipped (treated as error) : 0
Edge jitter error (maybe fixed) : 0
Atom jitter error (maybe fixed) : 0
Drift error (maybe fixed) : 0
Dropped bytes error (maybe fixed) : 0
Duplicated bytes error (maybe fixed) : 0
Inconsistency in error sectors : 0

Track 12
Filename : /Users/gubarenko/Desktop/Metallica - Load/12 - Thorn Within.flac

Track gain : -8.48 dB
Peak : 0.999969
CRC32 hash (test run) : 10B3BB3B
CRC32 hash : 10B3BB3B
CRC32 hash (skip zero) : 2AE74D69
AccurateRip signature : 656DCBD8
->Track not present in AccurateRip database.
Statistics
Read error : 0
Skipped (treated as error) : 0
Edge jitter error (maybe fixed) : 0
Atom jitter error (maybe fixed) : 0
Drift error (maybe fixed) : 0
Dropped bytes error (maybe fixed) : 0
Duplicated bytes error (maybe fixed) : 0
Inconsistency in error sectors : 0

Track 13
Filename : /Users/gubarenko/Desktop/Metallica - Load/13 - Ronnie.flac

Track gain : -8.26 dB
Peak : 0.999969
CRC32 hash (test run) : 63012E48
CRC32 hash : 63012E48
CRC32 hash (skip zero) : 81402BBB
AccurateRip signature : D4B8B651
->Track not present in AccurateRip database.
Statistics
Read error : 0
Skipped (treated as error) : 0
Edge jitter error (maybe fixed) : 0
Atom jitter error (maybe fixed) : 0
Drift error (maybe fixed) : 0
Dropped bytes error (maybe fixed) : 0
Duplicated bytes error (maybe fixed) : 0
Inconsistency in error sectors : 0

Track 14
Filename : /Users/gubarenko/Desktop/Metallica - Load/14 - The Outlaw Torn.flac

Track gain : -8.09 dB
Peak : 0.999969
CRC32 hash (test run) : 1668E8DD
CRC32 hash : 1668E8DD
CRC32 hash (skip zero) : AC2FB39E
AccurateRip signature : AC51DDF3
->Track not present in AccurateRip database.
Statistics
Read error : 0
Skipped (treated as error) : 0
Edge jitter error (maybe fixed) : 0
Atom jitter error (maybe fixed) : 0
Drift error (maybe fixed) : 0
Dropped bytes error (maybe fixed) : 0
Duplicated bytes error (maybe fixed) : 0
Inconsistency in error sectors : 0

No errors occurred

End of status report

TITLE "Load"
PERFORMER "Metallica"
CATALOG 0731453261822
REM GENRE "Metal"
REM DATE 1996
REM DISCID B512810E
FILE "01 - Ain't My Bitch.wav" WAVE
TRACK 01 AUDIO
TITLE "Ain't My Bitch"
ISRC GBAMC9600007
REM COMMENT "UICY-94667
Brought to you by gubarenko.me"
INDEX 01 00:00:00
FILE "02 - 2 x 4.wav" WAVE
TRACK 02 AUDIO
TITLE "2 x 4"
ISRC GBAMC9600008
REM COMMENT "UICY-94667
Brought to you by gubarenko.me"
INDEX 01 00:00:00
FILE "03 - The House Jack Built.wav" WAVE
TRACK 03 AUDIO
TITLE "The House Jack Built"
ISRC GBAMC9600009
REM COMMENT "UICY-94667
Brought to you by gubarenko.me"
INDEX 01 00:00:00
FILE "04 - Until It Sleeps.wav" WAVE
TRACK 04 AUDIO
TITLE "Until It Sleeps"
ISRC GBAMC9600001
REM COMMENT "UICY-94667
Brought to you by gubarenko.me"
INDEX 01 00:00:00
FILE "05 - King Nothing.wav" WAVE
TRACK 05 AUDIO
TITLE "King Nothing"
ISRC GBAMC9600010
REM COMMENT "UICY-94667
Brought to you by gubarenko.me"
INDEX 01 00:00:00
FILE "06 - Hero Of The Day.wav" WAVE
TRACK 06 AUDIO
TITLE "Hero Of The Day"
ISRC GBAMC9600012
REM COMMENT "UICY-94667
Brought to you by gubarenko.me"
INDEX 01 00:00:00
FILE "07 - Bleeding Me.wav" WAVE
TRACK 07 AUDIO
TITLE "Bleeding Me"
ISRC GBAMC9600013
REM COMMENT "UICY-94667
Brought to you by gubarenko.me"
INDEX 01 00:00:00
FILE "08 - Cure.wav" WAVE
TRACK 08 AUDIO
TITLE "Cure"
ISRC GBAMC9600014
REM COMMENT "UICY-94667
Brought to you by gubarenko.me"
INDEX 01 00:00:00
FILE "09 - Poor Twisted Me.wav" WAVE
TRACK 09 AUDIO
TITLE "Poor Twisted Me"
ISRC GBAMC9600015
REM COMMENT "UICY-94667
Brought to you by gubarenko.me"
INDEX 01 00:00:00
FILE "10 - Wasting My Hate.wav" WAVE
TRACK 10 AUDIO
TITLE "Wasting My Hate"
ISRC GBAMC9600016
REM COMMENT "UICY-94667
Brought to you by gubarenko.me"
INDEX 01 00:00:00
FILE "11 - Mama Said.wav" WAVE
TRACK 11 AUDIO
TITLE "Mama Said"
ISRC GBAMC9600017
REM COMMENT "UICY-94667
Brought to you by gubarenko.me"
INDEX 01 00:00:00
FILE "12 - Thorn Within.wav" WAVE
TRACK 12 AUDIO
TITLE "Thorn Within"
ISRC GBAMC9600018
REM COMMENT "UICY-94667
Brought to you by gubarenko.me"
INDEX 01 00:00:00
FILE "13 - Ronnie.wav" WAVE
TRACK 13 AUDIO
TITLE "Ronnie"
ISRC GBAMC9600019
REM COMMENT "UICY-94667
Brought to you by gubarenko.me"
INDEX 01 00:00:00
FILE "14 - The Outlaw Torn.wav" WAVE
TRACK 14 AUDIO
TITLE "The Outlaw Torn"
ISRC GBAMC9600020
REM COMMENT "UICY-94667
Brought to you by gubarenko.me"
INDEX 01 00:00:00
pb.wtf



Скачать Metallica - Load через торрент http://i.imgur.com/vOzQR1x.jpg Скачать фильм Metallica - Load через торрент бесплантно в хорошем качестве Metallica - Load (Japan SHM-CD) 2010 Страна-производитель диска: Japan Год Выпуска: 2010Жанр: Thrash / MetalИздатель (лейбл): Universal ... 10 10 5
Торрент: Зарегистрирован [2014-04-24 11:31] · скачан: 77 раз
Статус: √ проверено
Размер: 992 MB
Как cкачать? Как скачать Metallica - Load через торрент | qTorrent

% Раздел Тема Автор DL S | L
Heavy, Power, Progressive (lossless) [ 990 MB ] Metallica - ReLoad 2010 / FLAC / lossless / Thrash / Metal Notturno Скачать
1 | 0

28-11-2019 20:33  

Отключить всю рекламу на сайте

    Дорогой пользователь! Огромная просьба, поблагодарите релизера, оцените раздачу и оставьте свои комментарий, если Вы скачали Metallica - Load через торрент бесплатно! Внесите свою лепту в развитие PiratBit!
    Комментировать посты могут только пользователи прошедшие не сложную регистрацию
    Показать сообщения:    

    Metallica - Load через торрент
    Скачать бесплатно Metallica - Load
    Metallica - Load скачать торрент
    Metallica - Load смотреть онлайн
    Cкачать фильм Metallica - Load бесплатно
    Metallica - Load скачать торрент в хорошем качестве
    Metallica - Load смотреть онлайн бесплатно в хорошем качестве


    Вы не можете начинать темы
    Вы не можете отвечать на сообщения
    Вы не можете редактировать свои сообщения
    Вы не можете удалять свои сообщения
    Вы не можете голосовать в опросах
    Вы не можете прикреплять файлы к сообщениям
    Вы можете скачивать файлы