Ссылка на приватное зеркало нашего сайта всего за 1$. Внимание количество ограничено!!!

2 сезон

iTunes

1 сезон

1

2 сезон

2 сезон

iTunes

1 сезон

RePack

30

Новинка

ВАЖНО

ИГРА 18+

pack

RePack

MK11
pack

Забери бонус

RePack

jed

!!Акция!!

Alien_Rage

RePack

fifa19

RePack

Assassins Creed: Odyssey

RePack

NEED FOR SPEED™ PAYBACK

4 сезон

9 сезон

Бесстыжие 9 сезон

Все сериалы

все сериалы на PB.wtf

RePack

FAR CRY 5
  

Metallica - ReLoad (Japan SHM-CD) 2010 / FLAC (tracks+.cue) / lossless / Thrash / Metal pb.wtf

Metallica - ReLoad через торрент pb.wtf

Размер: 990 MB | Добавлен: 6 лет 7 мес. назад | Торрент скачан:37 раз
Скачать  

24-04-2014 11:57 Metallica - ReLoad Скачать торрент  

Metallica - ReLoad (Japan SHM-CD) 2010
Страна-производитель диска: Japan
Год Выпуска: 2010
Жанр: Thrash / Metal
Издатель (лейбл): Universal Music Japan
Номер по каталогу: UICY-94668
Страна: USA
Продолжительность: 01:16:05
Аудиокодек: FLAC (*.flac)
Тип рипа: tracks+.cue
Битрейт: lossless
Наличие сканов в содержимом раздачи: да, 600 dpi (PNG)
ReLoad (рус. «Перезагрузка») — седьмой студийный альбом американской рок-группы Metallica, вышедший в 1997 году.По утверждению самих членов группы, «ReLoad» вовсе не новый альбом, а всего лишь вторая часть выпущенного годом ранее альбома «Load». Все песни для обоих альбомов (за исключением песни «The Unforgiven II») были написаны в одно и то же время — с конца 1994 до первой половины 1995. Первоначально группа планировала выпустить эти песни двойным альбомом, но по разным причинам от этой идеи пришлось отказаться. Однако несмотря на это, по мнению многих поклонников группы, «ReLoad» получился более экспериментальным и разнообразным.
  • 1. Fuel
  • 2. The Memory Remains
  • 3. Devil's Dance
  • 4. The Unforgiven II
  • 5. Better Than You
  • 6. Slither
  • 7. Carpe Diem Baby
  • 8. Bad Seed
  • 9. Where The Wild Things Are
  • 10. Prince Charming
  • 11. Low Man's Lyric
  • 12. Attitude
  • 13. Fixxxer
скриншот  

X Lossless Decoder version 20100926 (123.1)

XLD extraction logfile from 2010-10-09 14:59:22 +0600

Metallica / Reload

Used drive : HL-DT-ST DVDRW GS23N (revision SB07)

Use cdparanoia mode : YES (CDParanoia III 10.2 engine)
Disable audio cache : OK for the drive with cache less than 2750KB
Make use of C2 pointers : NO
Read offset correction : 667
Max retry count : 100
Gap status : Analyzed, Appended

TOC of the extracted CD
Track | Start | Length | Start sector | End sector
---------------------------------------------------------
1 | 00:00:00 | 04:29:32 | 0 | 20206
2 | 04:29:32 | 04:39:25 | 20207 | 41156
3 | 09:08:57 | 05:19:00 | 41157 | 65081
4 | 14:27:57 | 06:36:16 | 65082 | 94797
5 | 21:03:73 | 05:21:62 | 94798 | 118934
6 | 26:25:60 | 05:13:00 | 118935 | 142409
7 | 31:38:60 | 06:12:30 | 142410 | 170339
8 | 37:51:15 | 04:05:25 | 170340 | 188739
9 | 41:56:40 | 06:54:17 | 188740 | 219806
10 | 48:50:57 | 06:05:00 | 219807 | 247181
11 | 54:55:57 | 07:37:30 | 247182 | 281486
12 | 62:33:12 | 05:16:25 | 281487 | 305211
13 | 67:49:37 | 08:15:17 | 305212 | 342353

All Tracks
Album gain : -9.22 dB
Peak : 0.999969

Track 01
Filename : /Users/gubarenko/Desktop/Metallica - Reload/01 - Fuel.flac
Pre-gap length : 00:02:00

Track gain : -9.10 dB
Peak : 0.999969
CRC32 hash (test run) : A4D84377
CRC32 hash : A4D84377
CRC32 hash (skip zero) : F0C3D6D2
AccurateRip signature : A45CE4F4
->Track not present in AccurateRip database.
Statistics
Read error : 0
Skipped (treated as error) : 0
Edge jitter error (maybe fixed) : 0
Atom jitter error (maybe fixed) : 0
Drift error (maybe fixed) : 0
Dropped bytes error (maybe fixed) : 0
Duplicated bytes error (maybe fixed) : 0
Inconsistency in error sectors : 0

Track 02
Filename : /Users/gubarenko/Desktop/Metallica - Reload/02 - The Memory Remains.flac

Track gain : -10.37 dB
Peak : 0.999969
CRC32 hash (test run) : F8D17A6B
CRC32 hash : F8D17A6B
CRC32 hash (skip zero) : 5E4A832D
AccurateRip signature : 8DEA742F
->Track not present in AccurateRip database.
Statistics
Read error : 0
Skipped (treated as error) : 0
Edge jitter error (maybe fixed) : 0
Atom jitter error (maybe fixed) : 0
Drift error (maybe fixed) : 0
Dropped bytes error (maybe fixed) : 0
Duplicated bytes error (maybe fixed) : 0
Inconsistency in error sectors : 0

Track 03
Filename : /Users/gubarenko/Desktop/Metallica - Reload/03 - Devil's Dance.flac

Track gain : -8.79 dB
Peak : 0.999969
CRC32 hash (test run) : E68E8629
CRC32 hash : E68E8629
CRC32 hash (skip zero) : EEE41256
AccurateRip signature : 645493D8
->Track not present in AccurateRip database.
Statistics
Read error : 0
Skipped (treated as error) : 0
Edge jitter error (maybe fixed) : 0
Atom jitter error (maybe fixed) : 0
Drift error (maybe fixed) : 0
Dropped bytes error (maybe fixed) : 0
Duplicated bytes error (maybe fixed) : 0
Inconsistency in error sectors : 0

Track 04
Filename : /Users/gubarenko/Desktop/Metallica - Reload/04 - The Unforgiven II.flac

Track gain : -9.18 dB
Peak : 0.999969
CRC32 hash (test run) : D77E4899
CRC32 hash : D77E4899
CRC32 hash (skip zero) : 673009FE
AccurateRip signature : 8968E21D
->Track not present in AccurateRip database.
Statistics
Read error : 0
Skipped (treated as error) : 0
Edge jitter error (maybe fixed) : 0
Atom jitter error (maybe fixed) : 0
Drift error (maybe fixed) : 0
Dropped bytes error (maybe fixed) : 0
Duplicated bytes error (maybe fixed) : 0
Inconsistency in error sectors : 0

Track 05
Filename : /Users/gubarenko/Desktop/Metallica - Reload/05 - Better Than You.flac

Track gain : -8.68 dB
Peak : 0.999969
CRC32 hash (test run) : 0F503458
CRC32 hash : 0F503458
CRC32 hash (skip zero) : 6E221995
AccurateRip signature : 2DBE865F
->Track not present in AccurateRip database.
Statistics
Read error : 0
Skipped (treated as error) : 0
Edge jitter error (maybe fixed) : 0
Atom jitter error (maybe fixed) : 0
Drift error (maybe fixed) : 0
Dropped bytes error (maybe fixed) : 0
Duplicated bytes error (maybe fixed) : 0
Inconsistency in error sectors : 0

Track 06
Filename : /Users/gubarenko/Desktop/Metallica - Reload/06 - Slither.flac

Track gain : -9.64 dB
Peak : 0.999969
CRC32 hash (test run) : 23152430
CRC32 hash : 23152430
CRC32 hash (skip zero) : BA9B37DD
AccurateRip signature : 9301A9A2
->Track not present in AccurateRip database.
Statistics
Read error : 0
Skipped (treated as error) : 0
Edge jitter error (maybe fixed) : 0
Atom jitter error (maybe fixed) : 0
Drift error (maybe fixed) : 0
Dropped bytes error (maybe fixed) : 0
Duplicated bytes error (maybe fixed) : 0
Inconsistency in error sectors : 0

Track 07
Filename : /Users/gubarenko/Desktop/Metallica - Reload/07 - Carpe Diem Baby.flac

Track gain : -8.91 dB
Peak : 0.999969
CRC32 hash (test run) : 406586BE
CRC32 hash : 406586BE
CRC32 hash (skip zero) : CD367987
AccurateRip signature : 5DE44C8F
->Track not present in AccurateRip database.
Statistics
Read error : 0
Skipped (treated as error) : 0
Edge jitter error (maybe fixed) : 0
Atom jitter error (maybe fixed) : 0
Drift error (maybe fixed) : 0
Dropped bytes error (maybe fixed) : 0
Duplicated bytes error (maybe fixed) : 0
Inconsistency in error sectors : 0

Track 08
Filename : /Users/gubarenko/Desktop/Metallica - Reload/08 - Bad Seed.flac

Track gain : -9.08 dB
Peak : 0.999969
CRC32 hash (test run) : 7A803693
CRC32 hash : 7A803693
CRC32 hash (skip zero) : 489CB907
AccurateRip signature : 82CE8A9E
->Track not present in AccurateRip database.
Statistics
Read error : 0
Skipped (treated as error) : 0
Edge jitter error (maybe fixed) : 0
Atom jitter error (maybe fixed) : 0
Drift error (maybe fixed) : 0
Dropped bytes error (maybe fixed) : 0
Duplicated bytes error (maybe fixed) : 0
Inconsistency in error sectors : 0

Track 09
Filename : /Users/gubarenko/Desktop/Metallica - Reload/09 - Where the Wild Things Are.flac

Track gain : -9.22 dB
Peak : 0.999969
CRC32 hash (test run) : C8D09A21
CRC32 hash : C8D09A21
CRC32 hash (skip zero) : 49492DAB
AccurateRip signature : 2277978E
->Track not present in AccurateRip database.
Statistics
Read error : 0
Skipped (treated as error) : 0
Edge jitter error (maybe fixed) : 0
Atom jitter error (maybe fixed) : 0
Drift error (maybe fixed) : 0
Dropped bytes error (maybe fixed) : 0
Duplicated bytes error (maybe fixed) : 0
Inconsistency in error sectors : 0

Track 10
Filename : /Users/gubarenko/Desktop/Metallica - Reload/10 - Prince Charming.flac

Track gain : -9.39 dB
Peak : 0.999969
CRC32 hash (test run) : DB38595D
CRC32 hash : DB38595D
CRC32 hash (skip zero) : 26DCCFF2
AccurateRip signature : 4209807E
->Track not present in AccurateRip database.
Statistics
Read error : 0
Skipped (treated as error) : 0
Edge jitter error (maybe fixed) : 0
Atom jitter error (maybe fixed) : 0
Drift error (maybe fixed) : 0
Dropped bytes error (maybe fixed) : 0
Duplicated bytes error (maybe fixed) : 0
Inconsistency in error sectors : 0

Track 11
Filename : /Users/gubarenko/Desktop/Metallica - Reload/11 - Low Man's Lyric.flac
Pre-gap length : 00:01:27

Track gain : -8.35 dB
Peak : 0.999969
CRC32 hash (test run) : 6539B3F2
CRC32 hash : 6539B3F2
CRC32 hash (skip zero) : 4158A9F0
AccurateRip signature : CD3C669C
->Track not present in AccurateRip database.
Statistics
Read error : 0
Skipped (treated as error) : 0
Edge jitter error (maybe fixed) : 0
Atom jitter error (maybe fixed) : 0
Drift error (maybe fixed) : 0
Dropped bytes error (maybe fixed) : 0
Duplicated bytes error (maybe fixed) : 0
Inconsistency in error sectors : 0

Track 12
Filename : /Users/gubarenko/Desktop/Metallica - Reload/12 - Attitude.flac
Pre-gap length : 00:01:11

Track gain : -8.95 dB
Peak : 0.999969
CRC32 hash (test run) : ACB40452
CRC32 hash : ACB40452
CRC32 hash (skip zero) : 8161652A
AccurateRip signature : 738C7109
->Track not present in AccurateRip database.
Statistics
Read error : 0
Skipped (treated as error) : 0
Edge jitter error (maybe fixed) : 0
Atom jitter error (maybe fixed) : 0
Drift error (maybe fixed) : 0
Dropped bytes error (maybe fixed) : 0
Duplicated bytes error (maybe fixed) : 0
Inconsistency in error sectors : 0

Track 13
Filename : /Users/gubarenko/Desktop/Metallica - Reload/13 - Fixxxer.flac

Track gain : -9.29 dB
Peak : 0.999969
CRC32 hash (test run) : 394FDB7B
CRC32 hash : 394FDB7B
CRC32 hash (skip zero) : 5D44AFAF
AccurateRip signature : DDAC70BA
->Track not present in AccurateRip database.
Statistics
Read error : 0
Skipped (treated as error) : 0
Edge jitter error (maybe fixed) : 0
Atom jitter error (maybe fixed) : 0
Drift error (maybe fixed) : 0
Dropped bytes error (maybe fixed) : 0
Duplicated bytes error (maybe fixed) : 0
Inconsistency in error sectors : 0

No errors occurred

End of status report

TITLE "Reload"
PERFORMER "Metallica"
CATALOG 0731453640924
REM GENRE "Heavy Metal"
REM DATE 1997
REM DISCID BD11D40D
FILE "01 - Fuel.wav" WAVE
TRACK 01 AUDIO
TITLE "Fuel"
ISRC GBAMC9700001
REM COMMENT "UICY-94668
Brought to you by gubarenko.me"
INDEX 01 00:00:00
FILE "02 - The Memory Remains.wav" WAVE
TRACK 02 AUDIO
TITLE "The Memory Remains"
ISRC GBAMC9700002
REM COMMENT "UICY-94668
Brought to you by gubarenko.me"
INDEX 01 00:00:00
FILE "03 - Devil's Dance.wav" WAVE
TRACK 03 AUDIO
TITLE "Devil's Dance"
ISRC GBAMC9700003
REM COMMENT "UICY-94668
Brought to you by gubarenko.me"
INDEX 01 00:00:00
FILE "04 - The Unforgiven II.wav" WAVE
TRACK 04 AUDIO
TITLE "The Unforgiven II"
ISRC GBAMC9700004
REM COMMENT "UICY-94668
Brought to you by gubarenko.me"
INDEX 01 00:00:00
FILE "05 - Better Than You.wav" WAVE
TRACK 05 AUDIO
TITLE "Better Than You"
ISRC GBAMC9700005
REM COMMENT "UICY-94668
Brought to you by gubarenko.me"
INDEX 01 00:00:00
FILE "06 - Slither.wav" WAVE
TRACK 06 AUDIO
TITLE "Slither"
ISRC GBAMC9700006
REM COMMENT "UICY-94668
Brought to you by gubarenko.me"
INDEX 01 00:00:00
FILE "07 - Carpe Diem Baby.wav" WAVE
TRACK 07 AUDIO
TITLE "Carpe Diem Baby"
ISRC GBAMC9700007
REM COMMENT "UICY-94668
Brought to you by gubarenko.me"
INDEX 01 00:00:00
FILE "08 - Bad Seed.wav" WAVE
TRACK 08 AUDIO
TITLE "Bad Seed"
ISRC GBAMC9700008
REM COMMENT "UICY-94668
Brought to you by gubarenko.me"
INDEX 01 00:00:00
FILE "09 - Where the Wild Things Are.wav" WAVE
TRACK 09 AUDIO
TITLE "Where the Wild Things Are"
ISRC GBAMC9700009
REM COMMENT "UICY-94668
Brought to you by gubarenko.me"
INDEX 01 00:00:00
FILE "10 - Prince Charming.wav" WAVE
TRACK 10 AUDIO
TITLE "Prince Charming"
ISRC GBAMC9700013
REM COMMENT "UICY-94668
Brought to you by gubarenko.me"
INDEX 01 00:00:00
TRACK 11 AUDIO
TITLE "Low Man's Lyric"
ISRC GBAMC9700010
INDEX 00 06:03:48
FILE "11 - Low Man's Lyric.wav" WAVE
INDEX 01 00:00:00
TRACK 12 AUDIO
TITLE "Attitude"
ISRC GBAMC9700011
INDEX 00 07:36:19
FILE "12 - Attitude.wav" WAVE
INDEX 01 00:00:00
FILE "13 - Fixxxer.wav" WAVE
TRACK 13 AUDIO
TITLE "Fixxxer"
ISRC GBAMC9700012
REM COMMENT "UICY-94668
Brought to you by gubarenko.me"
INDEX 01 00:00:00
pb.wtf



Скачать Metallica - ReLoad через торрент http://i.imgur.com/vOzQR1x.jpg Скачать фильм Metallica - ReLoad через торрент бесплантно в хорошем качестве Metallica - ReLoad (Japan SHM-CD) 2010 Страна-производитель диска: Japan Год Выпуска: 2010Жанр: Thrash / MetalИздатель (лейбл): ... 10 10 5
Info! Золотая раздача, скачанное не засчитывается.
Торрент: Зарегистрирован [2014-04-24 11:57] · скачан: 37 раз
Статус: √ проверено
Размер: 990 MB
Как cкачать? Как скачать Metallica - ReLoad через торрент | qTorrent

28-11-2019 20:33  

Отключить всю рекламу на сайте

    Дорогой пользователь! Огромная просьба, поблагодарите релизера, оцените раздачу и оставьте свои комментарий, если Вы скачали Metallica - ReLoad через торрент бесплатно! Внесите свою лепту в развитие PiratBit!
    Комментировать посты могут только пользователи прошедшие не сложную регистрацию
    Показать сообщения:    

    Metallica - ReLoad через торрент
    Скачать бесплатно Metallica - ReLoad
    Metallica - ReLoad скачать торрент
    Metallica - ReLoad смотреть онлайн
    Cкачать фильм Metallica - ReLoad бесплатно
    Metallica - ReLoad скачать торрент в хорошем качестве
    Metallica - ReLoad смотреть онлайн бесплатно в хорошем качестве


    Вы не можете начинать темы
    Вы не можете отвечать на сообщения
    Вы не можете редактировать свои сообщения
    Вы не можете удалять свои сообщения
    Вы не можете голосовать в опросах
    Вы не можете прикреплять файлы к сообщениям
    Вы можете скачивать файлы