Ссылка на приватное зеркало нашего сайта всего за 1$. Внимание количество ограничено!!!

2 сезон

iTunes

1 сезон

1

2 сезон

2 сезон

iTunes

1 сезон

RePack

30

Новинка

ВАЖНО

ИГРА 18+

pack

RePack

MK11
pack

Забери бонус

RePack

jed

!!Акция!!

Alien_Rage

RePack

fifa19

RePack

Assassins Creed: Odyssey

RePack

NEED FOR SPEED™ PAYBACK

4 сезон

9 сезон

Бесстыжие 9 сезон

Все сериалы

все сериалы на PB.wtf

RePack

FAR CRY 5
  

Metallica - Ride The Lighting (Japan SHM-CD) 2010 / FLAC (tracks+.cue) / lossless / Thrash / Metal pb.wtf

Metallica - Ride The Lighting через торрент pb.wtf

Размер: 619 MB | Добавлен: 6 лет 7 мес. назад | Торрент скачан:30 раз
Скачать  

24-04-2014 12:22 Metallica - Ride The Lighting Скачать торрент  

Metallica - Ride The Lighting (Japan SHM-CD) 2010
Страна-производитель диска: Japan
Год Выпуска: 2010
Жанр: Thrash / Metal
Издатель (лейбл): Universal Music Japan
Номер по каталогу: UICY-94663
Страна: USA
Продолжительность: 00:47:32
Аудиокодек: FLAC (*.flac)
Тип рипа: tracks+.cue
Битрейт: lossless
Наличие сканов в содержимом раздачи: да, 600 dpi (PNG)
Ride the Lightning (рус. «Оседлать молнию») — второй студийный альбом трэш-металлической группы Metallica, вышедший 27 июля 1984 года на лейбле Megaforce Records и переизданный лейблом Elektra Records 16 ноября 1984 года. Выражение «оседлать молнию» означает «быть казнённым на электрическом стуле». Электрический стул изображён на обложке альбома. Это первый альбом, записанный группой при участии продюсера Флемминга Расмуссена.В июле 1983 года Metallica выпустили свой дебютный студийный альбом Kill ’Em All на лейбле Megaforce Records. 20 февраля 1984 года, группа начала работу над второй пластинкой — Ride the Lightning в студии «Sweet Silence Studios», Копенгаген, Дания. Продюсером альбома выступил Флемминг Расмуссен, основатель данной студии. Также он продюсировал следующие две работы группы: Master of Puppets и …And Justice for All. Metallica закончили запись Ride the Lightning 14 марта, 1984 года и выпустили его на лейбле Megaforce 30 июля.В инструментальной композиции «The Call of Ktulu» используется аккордовая последовательность, придуманная Дэйвом Мастейном в то время, когда он ещё был членом Metallica. Дэйв Мастейн основал группу Megadeth и частично использовал эту последовательность во вступлении песни «Hangar 18» с альбома Rust in Peace.
  • 01. Fight Fire With Fire
  • 02. Ride The Lightning
  • 03. For Whom The Bell Tolls
  • 04. Fade To Black
  • 05. Trapped Under Ice
  • 06. Escape
  • 07. Creeping Death
  • 08. The Call Of Ktulu
скриншот  

X Lossless Decoder version 20100926 (123.1)

XLD extraction logfile from 2010-10-09 01:30:02 +0600

Metallica / Ride The Lightning

Used drive : HL-DT-ST DVDRW GS23N (revision SB07)

Use cdparanoia mode : YES (CDParanoia III 10.2 engine)
Disable audio cache : OK for the drive with cache less than 2750KB
Make use of C2 pointers : NO
Read offset correction : 667
Max retry count : 100
Gap status : Analyzed, Appended

TOC of the extracted CD
Track | Start | Length | Start sector | End sector
---------------------------------------------------------
1 | 00:00:00 | 04:45:31 | 0 | 21405
2 | 04:45:31 | 06:37:66 | 21406 | 51246
3 | 11:23:22 | 05:11:55 | 51247 | 74626
4 | 16:35:02 | 06:55:38 | 74627 | 105789
5 | 23:30:40 | 04:04:50 | 105790 | 124139
6 | 27:35:15 | 04:24:32 | 124140 | 143971
7 | 31:59:47 | 06:37:00 | 143972 | 173746
8 | 38:36:47 | 08:55:26 | 173747 | 213897

All Tracks
Album gain : -9.89 dB
Peak : 0.999329

Track 01
Filename : /Users/gubarenko/Desktop/Metallica - Ride The Lightning/01 - Fight Fire With Fire.flac
Pre-gap length : 00:02:00

Track gain : -10.12 dB
Peak : 0.999268
CRC32 hash (test run) : A9245E3D
CRC32 hash : A9245E3D
CRC32 hash (skip zero) : 7D3C87CB
AccurateRip signature : 3E91BE66
->Track not present in AccurateRip database.
Statistics
Read error : 0
Skipped (treated as error) : 0
Edge jitter error (maybe fixed) : 0
Atom jitter error (maybe fixed) : 0
Drift error (maybe fixed) : 0
Dropped bytes error (maybe fixed) : 0
Duplicated bytes error (maybe fixed) : 0
Inconsistency in error sectors : 0

Track 02
Filename : /Users/gubarenko/Desktop/Metallica - Ride The Lightning/02 - Ride The Lightning.flac

Track gain : -10.08 dB
Peak : 0.999329
CRC32 hash (test run) : 04827B5B
CRC32 hash : 04827B5B
CRC32 hash (skip zero) : 2738EB5A
AccurateRip signature : 420E1F2D
->Track not present in AccurateRip database.
Statistics
Read error : 0
Skipped (treated as error) : 0
Edge jitter error (maybe fixed) : 0
Atom jitter error (maybe fixed) : 0
Drift error (maybe fixed) : 0
Dropped bytes error (maybe fixed) : 0
Duplicated bytes error (maybe fixed) : 0
Inconsistency in error sectors : 0

Track 03
Filename : /Users/gubarenko/Desktop/Metallica - Ride The Lightning/03 - For Whom The Bell Tolls.flac
Pre-gap length : 00:01:34

Track gain : -9.09 dB
Peak : 0.999237
CRC32 hash (test run) : 63B501D9
CRC32 hash : 63B501D9
CRC32 hash (skip zero) : 18F11C53
AccurateRip signature : 878FFB26
->Track not present in AccurateRip database.
Statistics
Read error : 0
Skipped (treated as error) : 0
Edge jitter error (maybe fixed) : 0
Atom jitter error (maybe fixed) : 0
Drift error (maybe fixed) : 0
Dropped bytes error (maybe fixed) : 0
Duplicated bytes error (maybe fixed) : 0
Inconsistency in error sectors : 0

Track 04
Filename : /Users/gubarenko/Desktop/Metallica - Ride The Lightning/04 - Fade To Black.flac
Pre-gap length : 00:02:42

Track gain : -9.97 dB
Peak : 0.999237
CRC32 hash (test run) : ECB1E99E
CRC32 hash : ECB1E99E
CRC32 hash (skip zero) : C3E12601
AccurateRip signature : 179C9390
->Track not present in AccurateRip database.
Statistics
Read error : 0
Skipped (treated as error) : 0
Edge jitter error (maybe fixed) : 0
Atom jitter error (maybe fixed) : 0
Drift error (maybe fixed) : 0
Dropped bytes error (maybe fixed) : 0
Duplicated bytes error (maybe fixed) : 0
Inconsistency in error sectors : 0

Track 05
Filename : /Users/gubarenko/Desktop/Metallica - Ride The Lightning/05 - Trapped Under Ice.flac
Pre-gap length : 00:01:61

Track gain : -9.98 dB
Peak : 0.999329
CRC32 hash (test run) : 6D484DF0
CRC32 hash : 6D484DF0
CRC32 hash (skip zero) : F3D0E5AD
AccurateRip signature : 49B90FA5
->Track not present in AccurateRip database.
Statistics
Read error : 0
Skipped (treated as error) : 0
Edge jitter error (maybe fixed) : 0
Atom jitter error (maybe fixed) : 0
Drift error (maybe fixed) : 0
Dropped bytes error (maybe fixed) : 0
Duplicated bytes error (maybe fixed) : 0
Inconsistency in error sectors : 0

Track 06
Filename : /Users/gubarenko/Desktop/Metallica - Ride The Lightning/06 - Escape.flac
Pre-gap length : 00:00:21

Track gain : -9.18 dB
Peak : 0.999329
CRC32 hash (test run) : B0B5DB38
CRC32 hash : B0B5DB38
CRC32 hash (skip zero) : F8FB8272
AccurateRip signature : 0684C8FA
->Track not present in AccurateRip database.
Statistics
Read error : 0
Skipped (treated as error) : 0
Edge jitter error (maybe fixed) : 0
Atom jitter error (maybe fixed) : 0
Drift error (maybe fixed) : 0
Dropped bytes error (maybe fixed) : 0
Duplicated bytes error (maybe fixed) : 0
Inconsistency in error sectors : 0

Track 07
Filename : /Users/gubarenko/Desktop/Metallica - Ride The Lightning/07 - Creeping Death.flac
Pre-gap length : 00:01:08

Track gain : -10.24 dB
Peak : 0.999329
CRC32 hash (test run) : A83687B0
CRC32 hash : A83687B0
CRC32 hash (skip zero) : 82460063
AccurateRip signature : 48052E08
->Track not present in AccurateRip database.
Statistics
Read error : 0
Skipped (treated as error) : 0
Edge jitter error (maybe fixed) : 0
Atom jitter error (maybe fixed) : 0
Drift error (maybe fixed) : 0
Dropped bytes error (maybe fixed) : 0
Duplicated bytes error (maybe fixed) : 0
Inconsistency in error sectors : 0

Track 08
Filename : /Users/gubarenko/Desktop/Metallica - Ride The Lightning/08 - The Call Of Ktulu.flac

Track gain : -9.58 dB
Peak : 0.999268
CRC32 hash (test run) : 0D9A2872
CRC32 hash : 0D9A2872
CRC32 hash (skip zero) : 9A30362B
AccurateRip signature : 878C19AA
->Track not present in AccurateRip database.
Statistics
Read error : 0
Skipped (treated as error) : 0
Edge jitter error (maybe fixed) : 0
Atom jitter error (maybe fixed) : 0
Drift error (maybe fixed) : 0
Dropped bytes error (maybe fixed) : 0
Duplicated bytes error (maybe fixed) : 0
Inconsistency in error sectors : 0

No errors occurred

End of status report

TITLE "Ride The Lightning"
PERFORMER "Metallica"
CATALOG 0042283814028
REM GENRE "Metal"
REM DATE 1984
REM DISCID 750B2308
FILE "01 - Fight Fire With Fire.wav" WAVE
TRACK 01 AUDIO
TITLE "Fight Fire With Fire"
ISRC GBAMC8400006
REM COMMENT "UICY-94663
Brought to you by gubarenko.me"
INDEX 01 00:00:00
FILE "02 - Ride The Lightning.wav" WAVE
TRACK 02 AUDIO
TITLE "Ride The Lightning"
ISRC GBAMC8400005
REM COMMENT "UICY-94663
Brought to you by gubarenko.me"
INDEX 01 00:00:00
TRACK 03 AUDIO
TITLE "For Whom The Bell Tolls"
ISRC GBAMC8400004
INDEX 00 06:36:32
FILE "03 - For Whom The Bell Tolls.wav" WAVE
INDEX 01 00:00:00
TRACK 04 AUDIO
TITLE "Fade To Black"
ISRC GBAMC8400011
INDEX 00 05:09:13
FILE "04 - Fade To Black.wav" WAVE
INDEX 01 00:00:00
TRACK 05 AUDIO
TITLE "Trapped Under Ice"
ISRC GBAMC8400007
INDEX 00 06:53:52
FILE "05 - Trapped Under Ice.wav" WAVE
INDEX 01 00:00:00
TRACK 06 AUDIO
TITLE "Escape"
ISRC GBAMC8400008
INDEX 00 04:04:29
FILE "06 - Escape.wav" WAVE
INDEX 01 00:00:00
TRACK 07 AUDIO
TITLE "Creeping Death"
ISRC GBAMC8400009
INDEX 00 04:23:24
FILE "07 - Creeping Death.wav" WAVE
INDEX 01 00:00:00
FILE "08 - The Call Of Ktulu.wav" WAVE
TRACK 08 AUDIO
TITLE "The Call Of Ktulu"
ISRC GBAMC8400010
REM COMMENT "UICY-94663
Brought to you by gubarenko.me"
INDEX 01 00:00:00
pb.wtf



Скачать Metallica - Ride The Lighting через торрент http://i.imgur.com/vOzQR1x.jpg Скачать фильм Metallica - Ride The Lighting через торрент бесплантно в хорошем качестве Metallica - Ride The Lighting (Japan SHM-CD) 2010 Страна-производитель диска: Japan Год Выпуска: 2010Жанр: Thrash / MetalИздатель ... 10 10 6
Info! Золотая раздача, скачанное не засчитывается.
Торрент: Зарегистрирован [2014-04-24 12:22] · скачан: 30 раз
Статус: √ проверено
Размер: 619 MB
Как cкачать? Как скачать Metallica - Ride The Lighting через торрент | qTorrent

28-11-2019 20:33  

Отключить всю рекламу на сайте

    Дорогой пользователь! Огромная просьба, поблагодарите релизера, оцените раздачу и оставьте свои комментарий, если Вы скачали Metallica - Ride The Lighting через торрент бесплатно! Внесите свою лепту в развитие PiratBit!
    Комментировать посты могут только пользователи прошедшие не сложную регистрацию
    Показать сообщения:    

    Metallica - Ride The Lighting через торрент
    Скачать бесплатно Metallica - Ride The Lighting
    Metallica - Ride The Lighting скачать торрент
    Metallica - Ride The Lighting смотреть онлайн
    Cкачать фильм Metallica - Ride The Lighting бесплатно
    Metallica - Ride The Lighting скачать торрент в хорошем качестве
    Metallica - Ride The Lighting смотреть онлайн бесплатно в хорошем качестве


    Вы не можете начинать темы
    Вы не можете отвечать на сообщения
    Вы не можете редактировать свои сообщения
    Вы не можете удалять свои сообщения
    Вы не можете голосовать в опросах
    Вы не можете прикреплять файлы к сообщениям
    Вы можете скачивать файлы