2 сезон

iTunes

MVO

1

2 сезон

iTunes

iTunes

1 сезон

RePack

30

Новинка

ВАЖНО

ИГРА 18+

pack

RePack

MK11
pack

Легкие деньги

RePack

jed

RePack

fifa19

RePack

RDR2

RePack

NEED FOR SPEED™ PAYBACK

4 сезон

9 сезон

Бесстыжие 9 сезон

Все сериалы

все сериалы на PB.wtf

RePack

FAR CRY 5

Anonymous, доброй ночи, мы не успеваем собрать деньги на оплату серверов за декабрь и январь, помогите нам пожалуйста в это трудное время. В качестве благодарности мы отключим Вам всю рекламу на сайте (укажите свой ник в строку Ваше имя)!

×
  
Magnet ссылка

Уцелевший / Lone Survivor (Питер Берг / Peter Berg) [2013, военный, боевик, драма, BDRip-AVC] Dub + Eng pb.wtf

Уцелевший через торрент pb.wtf

Раздают: 1 [ 0 KB/s ]
Размер: 2.19 GB | Добавлен: 6 лет 9 мес. назад | Торрент скачан:652 раза
Скачать  

03-04-2014 06:42 Уцелевший Скачать торрент  

Уцелевший
Lone Survivor

«Live to Tell the Story»




Страна: США
Студия: Emmett/Furla Films, Film 44, Weed Road Pictures
Жанр: военный, боевик, драма
Год выпуска: 2013
Продолжительность: 02:01:14

Перевод: Профессиональный (полное дублирование) [Лицензия]
Cубтитры: русские, английские
Оригинальная аудиодорожка: английский

Режиссер:
Питер Берг / Peter Berg

В ролях:
Марк Уолберг, Тейлор Китч, Эмиль Хирш, Бен Фостер, Юсуф Азами, Али Сулиман, Эрик Бана, Александр Людвиг, Рич Тинг, Дэн Билзериан

Описание:
Афганистан, 2005 год. Команда американских спецназовцев получает задание обезвредить известного лидера талибов Ахмада Шаха. Попав в ловушку, солдаты принимают неравный кровопролитный бой, и все они погибают героями. Все, кроме одного. Для уцелевшего Маркуса Латтрела бой только начинается: он любой ценой должен выжить и пробраться к «своим». Когда почти всё потеряно, ему решается помочь Гулаб — мирный человек, ненавидящий войну.


Релиз:

Автор рипа: Stalker oK

Сэмпл: multi-up

Качество видео: BDRip-AVC [LONESURVIVOR_HDCLUB]
Формат видео: MKV
Видео кодек: AVC
Аудио кодек: AC3
Видео: 1813 Кбит/сек, 960*402 (2,35:1), в 24,000 кадр/сек, AVC
Аудио #1: Russian, 384 Кбит/сек, 48,0 КГц, 16 бит, 6 канала(ов), AC-3
Аудио #2: English, 384 Кбит/сек, 48,0 КГц, 16 бит, 6 канала(ов), AC-3
Общее
Уникальный идентификатор : 184168703749619105574186403505679741722 (0x8A8D9A25A723043B9A904716A9C5B31A)
Полное имя : D:tempУцелевшийUcelevshij.2013.BDRip-AVC.Dub.2.18...stalkerok.new-team.mkv
Формат : Matroska
Размер файла : 2,19 Гбайт
Продолжительность : 2 ч. 1 м.
Общий поток : 2581 Кбит/сек
Название фильма : Lone Survivor (2013) (New-Team) (Rip by Stalker oK)
Дата кодирования : UTC 2014-04-03 06:24:03
Программа кодирования : mkvmerge v6.5.0 ('Isn't she lovely') built on Oct 20 2013 12:50:05
Библиотека кодирования : libebml v1.3.0 + libmatroska v1.4.1

Видео
Идентификатор : 1
Формат : AVC
Формат/Информация : Advanced Video Codec
Профиль формата : High@L4.1
Параметр CABAC формата : Да
Параметр ReFrames формата : 10 кадры
Идентификатор кодека : V_MPEG4/ISO/AVC
Продолжительность : 2 ч. 1 м.
Битрейт : 1813 Кбит/сек
Ширина : 960 пикс.
Высота : 402 пикс.
Соотношение сторон : 2,35:1
Частота кадров : 24,000 кадр/сек
Цветовое пространство : YUV
Подвыборка цветности : 4:2:0
Битовая глубина : 8 бит
Тип развёртки : Прогрессивная
Бит/(Пиксели*Кадры) : 0.196
Размер потока : 1,49 Гбайт (68%)
Библиотека кодирования : x264 core 138 r2358 9e941d1
Настройки программы : cabac=1 / ref=10 / deblock=1:-2:-1 / analyse=0x3:0x133 / me=umh / subme=10 / psy=1 / psy_rd=1.00:0.10 / mixed_ref=1 / me_range=32 / chroma_me=1 / trellis=2 / 8x8dct=1 / cqm=0 / deadzone=21,11 / fast_pskip=0 / chroma_qp_offset=-3 / threads=6 / lookahead_threads=1 / sliced_threads=0 / nr=0 / decimate=0 / interlaced=0 / bluray_compat=0 / constrained_intra=0 / bframes=10 / b_pyramid=2 / b_adapt=2 / b_bias=0 / direct=3 / weightb=1 / open_gop=0 / weightp=2 / keyint=240 / keyint_min=24 / scenecut=40 / intra_refresh=0 / rc_lookahead=80 / rc=2pass / mbtree=1 / bitrate=1813 / ratetol=2.0 / qcomp=0.65 / qpmin=0 / qpmax=69 / qpstep=4 / cplxblur=20.0 / qblur=0.5 / vbv_maxrate=20000 / vbv_bufsize=25000 / nal_hrd=none / ip_ratio=1.40 / aq=2:1.00

Аудио #1
Идентификатор : 2
Формат : AC-3
Формат/Информация : Audio Coding 3
Расширение режима : CM (complete main)
Идентификатор кодека : A_AC3
Продолжительность : 2 ч. 1 м.
Вид битрейта : Постоянный
Битрейт : 384 Кбит/сек
Канал(ы) : 6 канала(ов)
Расположение каналов : Front: L C R, Side: L R, LFE
Частота : 48,0 КГц
Битовая глубина : 16 бит
Метод сжатия : С потерями
Размер потока : 333 Мбайт (15%)
Заголовок : AC3 5.1 @ 384 kbps Dub
Язык : Russian

Аудио #2
Идентификатор : 3
Формат : AC-3
Формат/Информация : Audio Coding 3
Расширение режима : CM (complete main)
Идентификатор кодека : A_AC3
Продолжительность : 2 ч. 1 м.
Вид битрейта : Постоянный
Битрейт : 384 Кбит/сек
Канал(ы) : 6 канала(ов)
Расположение каналов : Front: L C R, Side: L R, LFE
Частота : 48,0 КГц
Битовая глубина : 16 бит
Метод сжатия : С потерями
Размер потока : 333 Мбайт (15%)
Заголовок : AC3 5.1 @ 384 kbps
Язык : English

Текст #1
Идентификатор : 4
Формат : UTF-8
Идентификатор кодека : S_TEXT/UTF8
Идентификатор кодека/Информация : UTF-8 Plain Text
Заголовок : Rus
Язык : Russian

Текст #2
Идентификатор : 5
Формат : UTF-8
Идентификатор кодека : S_TEXT/UTF8
Идентификатор кодека/Информация : UTF-8 Plain Text
Заголовок : Eng
Язык : English

Меню
00:00:00.000 : en:00:00:00.000
00:10:36.000 : en:00:10:36.000
00:15:38.000 : en:00:15:38.000
00:20:40.000 : en:00:20:40.000
00:25:41.000 : en:00:25:41.000
00:30:43.000 : en:00:30:43.000
00:35:44.000 : en:00:35:44.000
00:40:45.000 : en:00:40:45.000
00:45:45.000 : en:00:45:45.000
00:50:50.000 : en:00:50:50.000
00:55:57.000 : en:00:55:57.000
01:01:00.000 : en:01:01:00.000
01:06:06.000 : en:01:06:06.000
01:11:07.000 : en:01:11:07.000
01:16:10.000 : en:01:16:10.000
01:21:12.000 : en:01:21:12.000
01:26:13.000 : en:01:26:13.000
01:31:15.000 : en:01:31:15.000
01:36:15.000 : en:01:36:15.000
01:41:16.000 : en:01:41:16.000
01:46:20.000 : en:01:46:20.000
01:51:20.000 : en:01:51:20.000
pb.wtf



Скачать Уцелевший через торрент http://i4.imageban.ru/out/2013/11/20/23afd37ba301cf29b16658cd2201c4ed.png Скачать фильм Уцелевший через торрент бесплантно в хорошем качестве Описание:Афганистан, 2005 год. Команда американских спецназовцев получает задание обезвредить известного лидера талибов Ахмада Шаха. Попав ... 8.8 10 18
Торрент: Зарегистрирован [2014-04-24 16:22] · скачан: 652 раз
Статус: √ проверено
Размер: 2.19 GB
Как cкачать? Как скачать Уцелевший через торрент | UTorrent

28-11-2019 20:33  

Отключить всю рекламу на сайте

    Дорогой пользователь! Огромная просьба, поблагодарите релизера, оцените раздачу и оставьте свои комментарий, если Вы скачали Уцелевший через торрент бесплатно! Внесите свою лепту в развитие PiratBit!
    Комментировать посты могут только пользователи прошедшие не сложную регистрацию
    Показать сообщения:    

    Уцелевший через торрент
    Скачать бесплатно Уцелевший
    Уцелевший скачать торрент
    Уцелевший смотреть онлайн
    Cкачать фильм Уцелевший бесплатно
    Уцелевший скачать торрент в хорошем качестве
    Уцелевший смотреть онлайн бесплатно в хорошем качестве


    Вы не можете начинать темы
    Вы не можете отвечать на сообщения
    Вы не можете редактировать свои сообщения
    Вы не можете удалять свои сообщения
    Вы не можете голосовать в опросах
    Вы не можете прикреплять файлы к сообщениям
    Вы можете скачивать файлы