Ссылка на приватное зеркало нашего сайта всего за 1$. Внимание количество ограничено!!!

2 сезон

iTunes

1 сезон

1

iTunes

iTunes

iTunes

1 сезон

RePack

30

ИГРА 18+

pack

ВАЖНО

!!Акция!!

Alien_RageХит недели

RePack

MK11
pack

Забери бонус

RePack

jed

!!Акция!!

Alien_Rage

RePack

fifa19

RePack

Assassins Creed: Odyssey

RePack

NEED FOR SPEED™ PAYBACK

4 сезон

9 сезон

Бесстыжие 9 сезон

Все сериалы

все сериалы на PB.wtf

RePack

FAR CRY 5
  

Космонавт / The Cosmonaut (Николас Алькала) [2013 г., фантастика, драма, мелодрама, история, WEB-DLRip, Любительский одноголосый] pb.wtf

Космонавт через торрент pb.wtf

Размер: 1.46 GB | Добавлен: 6 лет 6 мес. назад | Торрент скачан:247 раз
Скачать  

25-04-2014 17:39 Космонавт Скачать торрент  

Космонавт / The Cosmonaut
Год выпуска: 2013
Страна: Испания, Латвия / Entropy Studio, Forma Pro Films, Pecera Estudio
Жанр: фантастика, драма, мелодрама, история
Продолжительность: 01:42:16
Перевод: Любительский одноголосый (PashaUp)

Режиссер: Николас Алькала

В ролях: Катрин Де Кандоул, Леон Окенден, Макс Роттсли, Дэвид Баррасс, Ганс-Экарт Экхардт, Грег Блэкфорд, Ли Чейни

Описание: В 1975-м году первый советский космонавт был отправлен на Луну. Потерявшего возможность вернуться, его объявили сгинувшим в космическом пространстве. Но слабые радиосигналы от космонавта нарисовали совсем другую картину случившегося — он вернулся, однако Земля оказалась безлюдной. И его радиопослания с описанием увиденного вокруг медленно разрушают мир его любимых.

Качество: WEB-DLRip
Формат: AVI
Видео кодек: XviD
Аудио кодек: AC3
Видео: 720x304 (2.37:1), 23.976 fps, XviD build 50 ~1847 kbps avg, 0.35 bit/pixel
Аудио: 48 kHz, AC3 Dolby Digital, 2/0 (L,R) ch, ~192 kbps


Общее
Полное имя : H:\кино\The.Cosmonaut.2013.WEB-DLRip.avi
Формат : AVI
Формат/Информация : Audio Video Interleave
Размер файла : 1,46 Гбайт
Продолжительность : 1 ч. 42 м.
Общий поток : 2049 Кбит/сек
Программа кодирования : VirtualDubMod 1.5.10.3 | www.virtualdub-fr.org || (build 2550/release)
Библиотека кодирования : VirtualDubMod build 2550/release

Видео
Идентификатор : 0
Формат : MPEG-4 Visual
Профиль формата : Advanced Simple@L5
Параметр BVOP формата : 2
Параметр QPel формата : Нет
Параметр GMC формата : Без точки перехода
Параметр матрицы формата : Default (H.263)
Идентификатор кодека : XVID
Идентификатор кодека/Подсказка : XviD
Продолжительность : 1 ч. 42 м.
Битрейт : 1848 Кбит/сек
Ширина : 720 пикселей
Высота : 304 пикселя
Соотношение сторон : 2,35:1
Частота кадров : 23,976 кадра/сек
Цветовое пространство : YUV
Субдискретизация насыщенности : 4:2:0
Битовая глубина : 8 бит
Тип развёртки : Прогрессивная
Метод сжатия : С потерями
Бит/(Пиксели*Кадры) : 0.352
Размер потока : 1,32 Гбайт (90%)
Библиотека кодирования : XviD 1.2.1 (UTC 2008-12-04)

Аудио
Идентификатор : 1
Формат : AC-3
Формат/Информация : Audio Coding 3
Расширение режима : CM (complete main)
Параметр Endianness формата : Big
Идентификатор кодека : 2000
Продолжительность : 1 ч. 42 м.
Вид битрейта : Постоянный
Битрейт : 192 Кбит/сек
Каналы : 2 канала
Расположение каналов : Front: L R
Частота : 48,0 КГц
Битовая глубина : 16 бит
Метод сжатия : С потерями
Размер потока : 140 Мбайт (9%)
Выравнивание : Разделение по промежуткам
Продолжительность промежутка : 42 мс. (1,00 видеокадр)
Время предзагрузки промежутка : 500 мс.

pb.wtf



Скачать Космонавт через торрент http://pic.kartinco.top/images/6/rm6wh.jpg Скачать фильм Космонавт через торрент бесплантно в хорошем качестве Описание: В 1975-м году первый советский космонавт был отправлен на Луну. Потерявшего возможность вернуться, его объявили сгинувшим в ... 9 10 9
Торрент: Зарегистрирован [2014-04-25 17:39] · скачан: 247 раз
Статус: T временная
Размер: 1.46 GB
Как cкачать? Как скачать Космонавт через торрент | qTorrent

% Раздел Тема Автор DL S | L
Документальные фильмы и телепередачи [ 1.46 GB ] Космонавты. Как Россия выиграла космическую гонку / Cosmonauts. How Russia Won the Space Race [2014 Документальный HDTVRip Любительский одноголосый] МИХА~ Скачать
1 | 0
Фильмы 2013 (Звук TS, Cam, VO, DVO) [ 1.37 GB ] Космонавт / The Cosmonaut [2013 Испания Латвия WEB-DLRipЛюбительский [den904 DeadSno] Ворон Скачать
1 | 0

28-11-2019 20:33  

Отключить всю рекламу на сайте

11-05-2014 19:45 Космонавт Скачать торрент  

"Фантастичный, пРочти красивый фильм. Смотреть его надо на большом экране. К сожалению, в прокате я его не видел, а посмотрел случайно по ТВ на каком-то спутниковом канале (сейчас не помню). Фильм несколько проигрывает даже на большом телевизоре. При общей трагичности сюжета, фильм очень светлый и в прямом, и переносном смысле. Засветка кадра контросветом, регулярный операторский прием, глядится вполне к месту.

КОМУ можно порекомендовать этот фильм?

Кто купился на название и слово «фантастика», тому не стоит. Кто ожидает активных действий, драйва — тоже не стоит.

С другой стороны, кто ожидал большой драматургии, сложных перипетий сюжета, сложных взаимоотношений — тоже не стоит, может и есть, но я не увидел.

А вот если вам надоело выше перечисленное, устали от голливудской продукции, бандитских сериалов, чернухи нового российского кино, то посмотрите этот красивый, приятный фильм."

коммент на кинопоиске

Кому можно порекомендовать этот фильм? НИКОМУ!!!pb.wtf



    Дорогой пользователь! Огромная просьба, поблагодарите релизера, оцените раздачу и оставьте свои комментарий, если Вы скачали Космонавт через торрент бесплатно! Внесите свою лепту в развитие PiratBit!
    Комментировать посты могут только пользователи прошедшие не сложную регистрацию
    Показать сообщения:    

    Космонавт через торрент
    Скачать бесплатно Космонавт
    Космонавт скачать торрент
    Космонавт смотреть онлайн
    Cкачать фильм Космонавт бесплатно
    Космонавт скачать торрент в хорошем качестве
    Космонавт смотреть онлайн бесплатно в хорошем качестве


    Вы не можете начинать темы
    Вы не можете отвечать на сообщения
    Вы не можете редактировать свои сообщения
    Вы не можете удалять свои сообщения
    Вы не можете голосовать в опросах
    Вы не можете прикреплять файлы к сообщениям
    Вы можете скачивать файлы