Всегда рабочее зеркало без VPN и Proxy просто перед .vidak.icu напиши любое слово или цифру, Пример http://i8hr.vidak.icu

MVO

2 сезон

1 сезон

1

1 сезон

iTunes

2 сезон

13

1 сезон

Распродажа

pack

Рекомендуем

Пиратка

30

ВАЖНО

RePack

MK11

RePack

jed

RePack

fifa19

RePack

RDR2

RePack

NEED FOR SPEED™ PAYBACK

Кинопоиск HD

6 сезон

 Острые козырьки 6 сезон

Все сериалы

все сериалы на PB.wtf

RePack

FAR CRY 5

Anonymous, нам критически не хватает 5601 руб. на оплату серверов и переферии за Апрель, помоги нам пожалуйста, вся надежда только на тебя. В благодарность мы отключим тебе всю рекламу на сайте!

×
  
Magnet ссылка

Нимфоманка: Часть 1 / Nymphomaniac: Vol. I (Ларс фон Триер) [2013 г., драма, детектив, BDRemux, Дубляж][Чистый звук] pb.wtf

Нимфоманка: Часть 1 через торрент pb.wtf

Размер: 23.66 GB | Добавлен: 8 лет назад | Торрент скачан:301 раз
Смотреть онлайн Нимфоманка: Часть 1 | Скачать    Ребята, помогите собрать деньги на оплату серверов!!!

25-04-2014 21:37 Нимфоманка: Часть 1 Скачать торрент  


Название: Нимфоманка: Часть 1
Оригинальное название: Nymphomaniac: Vol. I
Год выхода: 2013
Продолжительность: 01:57:20
Перевод: Дублированный /Чистый звук/
Жанр: Драма
Страна: Дания, Германия, Франция, Бельгия, Великобритания
Режиссер: Ларс фон Триер
В ролях: Шарлотта Генсбур, Стэйси Мартин, Стеллан Скарсгард, Шайа ЛаБаф, Кристиан Слэйтер, Ума Турман, Софи Кеннеди Кларк, Йенс Альбинус, Николас Бро, Фелисити Гилберт
Описание:
Это светлая и поэтичная история эротических переживаний женщины от рождения до пятидесятилетия, рассказанная от лица главной героини, женщины по имени Джо, поставившей себе диагноз — нимфомания. Холодным зимним утром Селигман, немолодой одинокий холостяк, натыкается в переулке на Джо, избитую и находящуюся в полубессознательном состоянии. Доставив женщину домой, он рассматривает ее раны и задается вопросом, как дошла она до такой жизни. Джо рассказывает Селигману историю своей насыщенной молодости, изобилующую параллельными сюжетами и неожиданными отступлениями.





Качество: BDRemux 1080p
Формат: MKV
Видео кодек: H.264
Аудио кодек: AC3
Видео: 1 920 x 1 080pixels, 23.976 fps, 27.9 Mbps
Звук: AC-3, 48.0 KHz, 6 ch, 384 Kbps,48.0 KHz
Субтитры: нет
Format : Matroska
Format version : Version 4 / Version 2
File size : 23.7 GiB
Duration : 1h 57mn
Overall bit rate mode : Variable
Overall bit rate : 28.9 Mbps
Movie name : Nymphomaniac - Vol. I 2013 1080p Blu-ray Remux
Encoded date : UTC 2014-04-25 14:33:32
Writing application : mkvmerge v6.9.1 ('Blue Panther') 64bit built on Apr 18 2014 18:23:38
Writing library : libebml v1.3.0 + libmatroska v1.4.1

Video
ID : 1
Format : AVC
Format/Info : Advanced Video Codec
Format profile : High@L4.1
Format settings, CABAC : Yes
Format settings, ReFrames : 4 frames
Format settings, GOP : M=3, N=24
Codec ID : V_MPEG4/ISO/AVC
Duration : 1h 57mn
Bit rate mode : Variable
Bit rate : 27.9 Mbps
Maximum bit rate : 35.0 Mbps
Width : 1 920 pixels
Height : 1 080 pixels
Display aspect ratio : 16:9
Frame rate mode : Constant
Frame rate : 23.976 fps
Standard : NTSC
Color space : YUV
Chroma subsampling : 4:2:0
Bit depth : 8 bits
Scan type : Progressive
Bits/(Pixel*Frame) : 0.561
Stream size : 22.9 GiB (97%)
Language : English
Default : Yes
Forced : No
Color primaries : BT.709
Transfer characteristics : BT.709
Matrix coefficients : BT.709

Audio
ID : 2
Format : AC-3
Format/Info : Audio Coding 3
Mode extension : CM (complete main)
Format settings, Endianness : Big
Codec ID : A_AC3
Duration : 1h 57mn
Bit rate mode : Constant
Bit rate : 384 Kbps
Channel count : 6 channels
Channel positions : Front: L C R, Side: L R, LFE
Sampling rate : 48.0 KHz
Bit depth : 16 bits
Compression mode : Lossy
Stream size : 322 MiB (1%)
Default : Yes
Forced : No
pb.wtf



Скачать Нимфоманка: Часть 1 через торрент https://pic.kartinco.top/new/img/2014-05/12/6c94qrzy8795xm3apdke8mj17.jpg Скачать, смотреть онлайн Нимфоманка: Часть 1 бесплантно в хорошем качестве Описание: Это светлая и поэтичная история эротических переживаний женщины от рождения до пятидесятилетия, рассказанная от лица главной ... 10 10 8
Info! Золотая раздача, скачанное не засчитывается.
Торрент: Зарегистрирован [2014-04-25 21:37] · скачан: 301 раз
Статус: T временная
Размер: 23.66 GB
Как cкачать? Как скачать Нимфоманка: Часть 1 через торрент | UTorrent

% Раздел Тема Автор DL S | L
Фильмы [HD 720p, 1080p] (Хороший звук DUB, MVO) [ 26.65 GB ] Нимфоманка: Часть 1-2 / Nymphomaniac: Vol. I-II [2013 BDRip 1080p Любительский многоголосый|HamsterStudio] nn99nn Скачать
1 | 1
Фильмы с авторской озвучкой [ 2.18 GB ] Нимфоманка: Часть 1 / Nymphomaniac: Vol. I [2013 BDRip-AVC] AVO [Ю.Сербин] potroks Скачать
1 | 0
T Арт-хаус и авторское кино [ 2.05 GB ] Нимфоманка: Часть 1 / Nymphomaniac: Vol. I [2013 HDRip ][Чистый звук] Tipok_dv Скачать
1 | 1

28-11-2019 20:33  

Отключить всю рекламу на сайте

    Дорогой пользователь! Огромная просьба, поблагодарите релизера, оцените раздачу и оставьте свои комментарий, если Вы скачали Нимфоманка: Часть 1 через торрент бесплатно!
    Комментировать посты могут только пользователи прошедшие не сложную регистрацию
    Показать сообщения:    

    Нимфоманка: Часть 1 через торрент
    Скачать бесплатно Нимфоманка: Часть 1
    Нимфоманка: Часть 1 скачать торрент
    Нимфоманка: Часть 1 смотреть онлайн
    Cкачать фильм Нимфоманка: Часть 1 бесплатно
    Нимфоманка: Часть 1 скачать торрент в хорошем качестве
    Нимфоманка: Часть 1 смотреть онлайн бесплатно в хорошем качестве


    Вы не можете начинать темы
    Вы не можете отвечать на сообщения
    Вы не можете редактировать свои сообщения
    Вы не можете удалять свои сообщения
    Вы не можете голосовать в опросах
    Вы не можете прикреплять файлы к сообщениям
    Вы можете скачивать файлы