Ссылка на приватное зеркало нашего сайта всего за 1$. Внимание количество ограничено!!!

2 сезон

iTunes

1 сезон

1

iTunes

iTunes

iTunes

1 сезон

RePack

30

ИГРА 18+

pack

ВАЖНО

!!Акция!!

Alien_RageХит недели

RePack

MK11
pack

Забери бонус

RePack

jed

!!Акция!!

Alien_Rage

RePack

fifa19

RePack

Assassins Creed: Odyssey

RePack

NEED FOR SPEED™ PAYBACK

4 сезон

9 сезон

Бесстыжие 9 сезон

Все сериалы

все сериалы на PB.wtf

RePack

FAR CRY 5
  

Пока смерть не разлучит нас / Death Do Us Part (Николас Хемфрис / Nicholas Humphries) [ 2014 , Канада , ужасы, триллер , WEB-DLRip ]VO (datynet) pb.wtf

Пока смерть не разлучит нас через торрент pb.wtf

Размер: 1.34 GB | Добавлен: 6 лет 6 мес. назад | Торрент скачан:249 раз
Скачать  

26-04-2014 02:27 Пока смерть не разлучит нас Скачать торрент  

Пока смерть не разлучит нас / Death Do Us Part
Год выпуска: 2014
Страна: Канада
Жанр: ужасы, триллер
Продолжительность: 01:29:05
Перевод: Любительский (одноголосый)(datynet)
Субтитры: Нет
Режиссер: Николас Хемфрис / Nicholas Humphries
Сценарий: Райан Коппл / Ryan Copple, Питер Бенсон / Peter Benson, Джулия Андерсон / Julia Anderson
Продюсер: Калина Кифф / Kaleena Kiff, Джулия Андерсон / Julia Anderson, Питер Бенсон / Peter Benson, Кайл Кэсси / Kyle Cassie, Бен Коппл / Ben Copple
Оператор: Крис Кемпински / Chris Kempinski
Композитор: Kim Oxlund, Maya Saxell
В ролях:
Джулия Андерсон (Kennedy), Питер Бенсон (Ryan Harris), Эмили Уллерап (Emily Hawkins), Кристин Шателейн (Hannah Jamieson), Кайл Кэсси (Chet Donovan), Бенджамин Эйрс (Derek Harris), Дэйв Коллетт (Bo), Аарон Дуглас (Harry), Вив Ликок (Steve)
Мировая премьера: 15 апреля 2014
Описание:
Богатая светская львица Кеннеди Джэмисон всю свою жизнь мечтала об идеальной свадьбе. И вот наконец-то она помолвлена с очаровательным Райаном Харрисом, который через неделю станет её мужем, для полного счастья не хватает только последней холостяцкой вечеринки. Шафер Райана, Чет, арендует отдаленный домик в лесу, чтобы устроить им настоящий праздник, который они не забудут никогда. Но постепенно события принимают ужасающий оборот, члены компании начинают жестоко погибать один за другим. Что-то произошло, и празднование быстро превращается в кровавый кошмар. Дружба разорвана, и шквал обвинений друг друга в этом злодеянии дополняет психологический ужас, поворачивая его в сторону детективного романа.
Рейтинг
MPAA: R - Лицам до 17 лет обязательно присутствие взрослого
Качество: WEB-DLRip
Формат: AVI
Видео кодек: XviD
Аудио кодек: MP3
Видео: 1950 Кбит/сек, 720*400 (16:9), в 23,976 кадра/сек, Xvid
Аудио: 192 Кбит/сек, 44,1 КГц, 2 канала, MPEG Audio (MP3)
Общее
Полное имя : H:\ТОРРЕНТЫ\Пока смерть.avi
Формат : AVI
Формат/Информация : Audio Video Interleave
Размер файла : 1,34 Гбайт
Продолжительность : 1 ч. 29 м.
Общий поток : 2152 Кбит/сек
Программа кодирования : Lavf54.63.104
Библиотека кодирования : VirtualDub build 34753/release

Видео
Идентификатор : 0
Формат : xvid
Идентификатор кодека : xvid
Продолжительность : 1 ч. 29 м.
Битрейт : 1950 Кбит/сек
Ширина : 720 пикселей
Высота : 400 пикселей
Соотношение сторон : 16:9
Частота кадров : 23,976 кадра/сек
Бит/(Пиксели*Кадры) : 0.282
Размер потока : 1,21 Гбайт (91%)

Аудио
Идентификатор : 1
Формат : MPEG Audio
Версия формата : Version 1
Профиль формата : Layer 3
Идентификатор кодека : 55
Идентификатор кодека/Подсказка : MP3
Продолжительность : 1 ч. 29 м.
Вид битрейта : Постоянный
Битрейт : 192 Кбит/сек
Каналы : 2 канала
Частота : 44,1 КГц
Метод сжатия : С потерями
Размер потока : 122 Мбайт (9%)
Выравнивание : Разделение по промежуткам
Продолжительность промежутка : 42 мс. (1,00 видеокадр)
Время предзагрузки промежутка : 500 мс.

скриншот   скриншот   скриншот   скриншот   скриншот   скриншот   скриншот   скриншот   скриншот  

pb.wtf



Скачать Пока смерть не разлучит нас через торрент http://i56.fastpic.ru/big/2014/0426/89/b62e0352ec3b5e4440d3755852b49189.jpg Скачать фильм Пока смерть не разлучит нас через торрент бесплантно в хорошем качестве Описание:Богатая светская львица Кеннеди Джэмисон всю свою жизнь мечтала об идеальной свадьбе. И вот наконец-то она помолвлена с ... 9.5 10 14
Торрент: Зарегистрирован [2014-04-26 02:27] · скачан: 249 раз
Статус: T временная
Размер: 1.34 GB
Как cкачать? Как скачать Пока смерть не разлучит нас через торрент | qTorrent

% Раздел Тема Автор DL S | L
T Фильмы (мультфильмы) cо спонсором показа (Новинки AVI/MKV) [ 2.91 GB ] Пока смерть не разлучит нас / Til Death Do Us Part [2017 WEBRip 720p] MVO [КОЛОБОК] bober100 Скачать
1 | 0
T Фильмы (мультфильмы) cо спонсором показа (Новинки AVI/MKV) [ 1.37 GB ] Пока смерть не разлучит нас / Til Death Do Us Part [2017 WEBRip] MVO [КОЛОБОК] bober100 Скачать
1 | 0
Фильмы (Blu-ray, BD-Remux, HDDVD) [ 15.91 GB ] Пока смерть не разлучит нас / Death Do Us Part [2014 BDRemux 1080p] VO Ворон Скачать
1 | 0
T Фильмы 2013 (Звук TS, Cam, VO, DVO) [ 746 MB ] Пока смерть не разлучит нас / Death Do Us Part [2014 WEB-DLRip] VO mudrakmisha Скачать
1 | 0

28-11-2019 20:33  

Отключить всю рекламу на сайте

26-04-2014 02:32 Пока смерть не разлучит нас Скачать торрент  

26-04-2014 03:04 Пока смерть не разлучит нас Скачать торрент  

Nemo™ писал(а):

http://www.kinopoisk.ru/film/663819/

Читайте всё) премьера (мир) 15 апреля 2014pb.wtf



26-04-2014 08:47 Пока смерть не разлучит нас Скачать торрент  

А что за качество такое XviD?pb.wtf



26-04-2014 10:40 Пока смерть не разлучит нас Скачать торрент  

Manya029 писал(а):

А что за качество такое XviD?

Xvid является основным конкурентом кодека DivX Pro (Xvid это DivX наоборот). В противоположность кодеку DivX — проприетарному программному обеспечению, разработанному компанией DivX, Inc., Xvid — это свободная программа, основанная на некогда открытом исходном коде другого кодека — DivX и распространяемая под лицензией GNU General Public License. Это также означает, что в отличие от кодека DivX, который выпущен только для платформ Microsoft Windows и Mac OS X, Xvid можно использовать на всех платформах и операционных системах, для которых можно скомпилировать исходный код кодека. Однако методы сжатия, используемые в MPEG-4, запатентованы, так что использование Xvid в некоторых странах может быть нелегальным.pb.wtf



14-05-2014 15:17 Пока смерть не разлучит нас Скачать торрент  

фильм полная шляпа, не теряйте времяpb.wtf



24-05-2014 08:39 Пока смерть не разлучит нас Скачать торрент  

7-ой скриншот суперpb.wtf



    Дорогой пользователь! Огромная просьба, поблагодарите релизера, оцените раздачу и оставьте свои комментарий, если Вы скачали Пока смерть не разлучит нас через торрент бесплатно! Внесите свою лепту в развитие PiratBit!
    Комментировать посты могут только пользователи прошедшие не сложную регистрацию
    Показать сообщения:    

    Пока смерть не разлучит нас через торрент
    Скачать бесплатно Пока смерть не разлучит нас
    Пока смерть не разлучит нас скачать торрент
    Пока смерть не разлучит нас смотреть онлайн
    Cкачать фильм Пока смерть не разлучит нас бесплатно
    Пока смерть не разлучит нас скачать торрент в хорошем качестве
    Пока смерть не разлучит нас смотреть онлайн бесплатно в хорошем качестве


    Вы не можете начинать темы
    Вы не можете отвечать на сообщения
    Вы не можете редактировать свои сообщения
    Вы не можете удалять свои сообщения
    Вы не можете голосовать в опросах
    Вы не можете прикреплять файлы к сообщениям
    Вы можете скачивать файлы