1 сезон

1 сезон

iTunes

1

КиноПоиск HD

Кинопоиск HD

iTunes

13

1 сезон

RePack

30

Новинка

ВАЖНО

ИГРА 18+

pack

RePack

MK11
pack

Легкие деньги

RePack

jed

RePack

fifa19

RePack

RDR2

RePack

NEED FOR SPEED™ PAYBACK

4 сезон

9 сезон

Бесстыжие 9 сезон

Все сериалы

все сериалы на PB.wtf

RePack

FAR CRY 5
  
Magnet ссылка

Застрял в тебе / Stuck on You (Бобби Фаррелли / Bobby Farrelly, Питер Фаррелли / Peter Farrelly) [ 2003 , США , комедия , HDRip,DUB +Sub ] pb.wtf

Застрял в тебе через торрент pb.wtf

Размер: 1.46 GB | Добавлен: 6 лет 11 мес. назад | Торрент скачан:60 раз
Скачать  

26-04-2014 04:42 Застрял в тебе Скачать торрент  

Застрял в тебе / Stuck on YouГод выпуска:2003
Страна: США
Жанр: комедия
Продолжительность: 01:53:44
Перевод: Профессиональный (полное дублирование)
Субтитры: Субтитры (Русские,Английские)
Режиссер: Бобби Фаррелли / Bobby Farrelly, Питер Фаррелли / Peter Farrelly

В ролях: Мэтт Дэймон (Bob Tenor), Грег Киннер (Walt Tenor), Ева Мендес (April Mercedes), Вэнь Ян Ших (May), Пэт Кроуфорд Браун (Mimmy), Рэй «Рокет» Валльер (Rocket), Томми Сонгин (Tommy), Теренс Берни Хайнс (Moe), Шер (Cher /Honey), Джеки Флинн (Howard), Сеймур Кэссел (Morty O'Reilly), Гриффин Данн (Griffin Dunne)
Описание:
Боб и Уолт Тенор - не просто братья. Они - сиамские близнецы, которым везет во всем: от бонусных гамбургеров до чудесных трюков на льду. Они - сросшиеся, а потому всегда неразлучны и никогда не бросят друг друга в беде.
Все идет своим чередом, пока Уолт не решает, что пора бы осуществиться его давней мечте - стать звездой Голливуда. Он убеждает своего брата рискнуть вместе с ним, и «странная парочка» отправляется в Калифорнию пытать счастья...

Рейтинг
kinopoisk.ru: 6.334 (3912)
imdb.com: 5.80 (38 123)
MPAA: PG-13 - Детям до 13 лет просмотр не желателен
Качество: HDRip
Формат: AVI
Видео кодек: XviD
Аудио кодек: AC3
Видео: XviD, 720x304 (2.35:1), 1438 kbps, 25 fps, 0,263 bpp
Аудио №1: Русский AC3 / 2.0 / 48 kHz / 192 kbps / 16 bit
Аудио №2: Английский AC3 / 2.0 / 48 kHz / 192 kbps / 16 bit
© Оформление by ФёдорOFF
General
Complete name : D:\раздачи\Zastryal.v.tebe.2003.HDRip\Zastryal_v_tebe_2003_HDRip_.avi
Format : AVI
Format/Info : Audio Video Interleave
File size : 1.46 GiB
Duration : 1h 53mn
Overall bit rate : 1 837 Kbps
Writing library : VirtualDubMod build 2550/release

Video
ID : 0
Format : MPEG-4 Visual
Format profile : Advanced Simple@L5
Format settings, BVOP : 1
Format settings, QPel : No
Format settings, GMC : No warppoints
Format settings, Matrix : Custom
Codec ID : XVID
Codec ID/Hint : XviD
Duration : 1h 53mn
Bit rate : 1 438 Kbps
Width : 720 pixels
Height : 304 pixels
Display aspect ratio : 2.35:1
Frame rate : 25.000 fps
Color space : YUV
Chroma subsampling : 4:2:0
Bit depth : 8 bits
Scan type : Progressive
Compression mode : Lossy
Bits/(Pixel*Frame) : 0.263
Stream size : 1.14 GiB (78%)
Writing library : XviD 73

Audio #1
ID : 1
Format : AC-3
Format/Info : Audio Coding 3
Mode extension : CM (complete main)
Codec ID : 2000
Duration : 1h 53mn
Bit rate mode : Constant
Bit rate : 192 Kbps
Channel(s) : 2 channels
Channel positions : Front: L R
Sampling rate : 48.0 KHz
Bit depth : 16 bits
Compression mode : Lossy
Stream size : 156 MiB (10%)
Alignment : Split accross interleaves
Interleave, duration : 40 ms (1.00 video frame)
Interleave, preload duration : 500 ms

Audio #2
ID : 2
Format : AC-3
Format/Info : Audio Coding 3
Mode extension : CM (complete main)
Codec ID : 2000
Duration : 1h 53mn
Bit rate mode : Constant
Bit rate : 192 Kbps
Channel(s) : 2 channels
Channel positions : Front: L R
Sampling rate : 48.0 KHz
Bit depth : 16 bits
Compression mode : Lossy
Stream size : 156 MiB (10%)
Alignment : Split accross interleaves
Interleave, duration : 40 ms (1.00 video frame)
Interleave, preload duration : 500 ms
pb.wtf



Скачать Застрял в тебе через торрент http://i1.imageban.ru/out/2014/04/26/900c90766249e449da6338097c931eff.jpg Скачать фильм Застрял в тебе через торрент бесплантно в хорошем качестве Описание: Боб и Уолт Тенор - не просто братья. Они - сиамские близнецы, которым везет во всем: от бонусных гамбургеров до чудесных трюков ... 10 10 6
Info! Золотая раздача, скачанное не засчитывается.
Торрент: Зарегистрирован [2014-04-26 04:42] · скачан: 60 раз
Статус: √ проверено
Размер: 1.46 GB
Как cкачать? Как скачать Застрял в тебе через торрент | UTorrent

28-11-2019 20:33  

Отключить всю рекламу на сайте

    Дорогой пользователь! Огромная просьба, поблагодарите релизера, оцените раздачу и оставьте свои комментарий, если Вы скачали Застрял в тебе через торрент бесплатно! Внесите свою лепту в развитие PiratBit!
    Комментировать посты могут только пользователи прошедшие не сложную регистрацию
    Показать сообщения:    

    Застрял в тебе через торрент
    Скачать бесплатно Застрял в тебе
    Застрял в тебе скачать торрент
    Застрял в тебе смотреть онлайн
    Cкачать фильм Застрял в тебе бесплатно
    Застрял в тебе скачать торрент в хорошем качестве
    Застрял в тебе смотреть онлайн бесплатно в хорошем качестве


    Вы не можете начинать темы
    Вы не можете отвечать на сообщения
    Вы не можете редактировать свои сообщения
    Вы не можете удалять свои сообщения
    Вы не можете голосовать в опросах
    Вы не можете прикреплять файлы к сообщениям
    Вы можете скачивать файлы