2 сезон

iTunes

MVO

1

2 сезон

iTunes

1 сезон

1 сезон

RePack

30

Ultimate

ВАЖНО

ИГРА 18+

pack

RePack

MK11
pack

Легкие деньги

RePack

jed

RePack

fifa19

RePack

RDR2

RePack

NEED FOR SPEED™ PAYBACK

4 сезон

9 сезон

Бесстыжие 9 сезон

Все сериалы

все сериалы на PB.wtf

RePack

FAR CRY 5

Anonymous, добрый вечер, мы не успеваем собрать деньги на оплату серверов за декабрь и январь, помогите нам пожалуйста в это трудное время. В качестве благодарности мы отключим Вам всю рекламу на сайте (укажите свой ник в строку Ваше имя)!

×
  
Magnet ссылка

Мистериум. Начало (Женщина в клетке)/ Kvinden i buret (Миккель Нёргор / Mikkel Nørgaard) [2013, Дания, Германия, Швеция, триллер, криминал, детектив, HDRip,Профессиональный (многоголосый, закадровый)[Лицензия] pb.wtf

Мистериум. Начало через торрент pb.wtf

Размер: 1.37 GB | Добавлен: 6 лет 9 мес. назад | Торрент скачан:1109 раз
Скачать  

26-04-2014 09:29 Мистериум. Начало Скачать торрент  

Мистериум. Начало(Женщина в клетке) / Kvinden i buret

«Intet er glemt for altid»
  • Год выпуска: 2013
  • Страна:Дания, Германия, Швеция
  • Жанр:триллер, криминал, детектив
  • Продолжительность:01:36:32
  • Перевод:Профессиональный (многоголосый, закадровый)[Лицензия]
  • Субтитры: Нет
  • Режиссер: Миккель Нёргор / Mikkel Nørgaard

  • В ролях:

    Николай Ли Каас (Carl Mørck), Фарес Фарес (Assad), Соня Рихтер (Merete Lynggaard), Christoffer Aro (Police Officer), Клаус Маак Бансен (Meretes far), Marie Hammer Boda (Jespers kæreste), Nynne Bojsen (Socialrådgiver), Расмус Ботофт (Tage Baggesen), Эрнст Бойе (Uffe som barn), Michael Brostrup (Børge Bak), Кеннет Кармон (Mand på færge), Мари-Луиза Конинк (Ulla)

    • Описание:
      Экранизация приключений детективов Карла Мерке и Асада, работающих в Департаменте Q, занимающемся «глухарями». Взявшись за дело пятилетней давности об исчезновении женщины по имени Мерет они внезапно выходят на след маньяка-психопата, но преследуя его по всей стране, все равно на шаг отстают.

    Мировая премьера:10 августа 2013

    • Качество: HDRip
    • Формат: AVI
    • Видео кодек: DivX 5
    • Аудио кодек:AC3
    • Видео: DivX 5, 720x304 (2.35:1), 1566 kbps, 24 fps, 0,298 bpp
    • Аудио: AC3 / 5.1 / 48 kHz / 448 kbps / 16 bit


    Код:

    General
    Complete name                            : D:\Торенты\Kvinden.i.buret.2013.HDRip.1400MB.avi
    Format                                   : AVI
    Format/Info                              : Audio Video Interleave
    File size                                : 1.37 GiB
    Duration                                 : 1h 36mn
    Overall bit rate                         : 2 024 Kbps
    Movie name                               : Kvinden.i.buret.2013.HDRip.1400MB
    Director                                 :
    Genre                                    : Thriller  / Crime / Mystery /
    Writing application                      : VirtualDubMod 1.5.4.1 (build 2066/release)
    Writing library                          : VirtualDubMod build 2066/release
    Original source form/Name                : Movie
    Copyright                                :
    Comment                                  : Rus.PM[Positive]

    Video
    ID                                       : 0
    Format                                   : MPEG-4 Visual
    Format profile                           : Simple@L1
    Format settings, BVOP                    : No
    Format settings, QPel                    : No
    Format settings, GMC                     : No warppoints
    Format settings, Matrix                  : Default (H.263)
    Codec ID                                 : DX50
    Codec ID/Hint                            : DivX 5
    Duration                                 : 1h 36mn
    Bit rate                                 : 1 567 Kbps
    Width                                    : 720 pixels
    Height                                   : 304 pixels
    Display aspect ratio                     : 2.35:1
    Frame rate                               : 24.000 fps
    Color space                              : YUV
    Chroma subsampling                       : 4:2:0
    Bit depth                                : 8 bits
    Scan type                                : Progressive
    Compression mode                         : Lossy
    Bits/(Pixel*Frame)                       : 0.298
    Stream size                              : 1.06 GiB (77%)
    Writing library                          : Lavc51.40.4

    Audio
    ID                                       : 1
    Format                                   : AC-3
    Format/Info                              : Audio Coding 3
    Mode extension                           : CM (complete main)
    Codec ID                                 : 2000
    Duration                                 : 1h 36mn
    Bit rate mode                            : Constant
    Bit rate                                 : 448 Kbps
    Channel(s)                               : 6 channels
    Channel positions                        : Front: L C R, Side: L R, LFE
    Sampling rate                            : 48.0 KHz
    Bit depth                                : 16 bits
    Compression mode                         : Lossy
    Stream size                              : 309 MiB (22%)
    Alignment                                : Split accross interleaves
    Interleave, duration                     : 42 ms (1.00 video frame)
    Interleave, preload duration             : 500 ms

    Скриншоты:

    Каталог Новинок (Фильмы-трейлеры, Игры, Сериалы, Мультфильмы)

    © Оформление by Raven
    pb.wtf



  • Скачать Мистериум. Начало через торрент https://pic.kartinco.top/images/6/rrfn6.jpg Скачать фильм Мистериум. Начало через торрент бесплантно в хорошем качестве Описание:Экранизация приключений детективов Карла Мерке и Асада, работающих в Департаменте Q, занимающемся «глухарями». Взявшись за дело ... 9.3 10 24
    Торрент: Зарегистрирован [2014-04-26 09:29] · скачан: 1 109 раз
    Статус: √ проверено
    Размер: 1.37 GB
    Как cкачать? Как скачать Мистериум. Начало через торрент | UTorrent

    % Раздел Тема Автор DL S | L
    Фильмы 2013 [DVDrip, WEB-DLRip, HDrip] [ 1.35 GB ] Мистериум. Начало / Kvinden i buret [2013 Дания Германия Швеция HDRip Ворон Скачать
    2 | 0
    Фильмы 2013 [DVDrip, WEB-DLRip, HDrip] [ 1.37 GB ] Мистериум. Начало / Kvinden i buret [2013 HDRip-AVC многоголосый] от R.G. PiratFilms кэп Скачать
    1 | 0
    Фильмы с авторской озвучкой [ 1.51 GB ] Мистериум. Начало / Kvinden i buret [2013 BDRip Авторский одноголосый ] coc900 Скачать
    1 | 0
    Фильмы [HD 720p, 1080p] (Хороший звук DUB, MVO) [ 8.29 GB ] Женщина в клетке / Мистериум. Начало / Kvinden i buret [2013 BDRip 1080p многоголосый -Позитив] Ворон Скачать
    2 | 0
    Фильмы (Blu-ray, BD-Remux, HDDVD) [ 16.42 GB ] Женщина в клетке / Мистериум. Начало / Kvinden i buret [2013 BDRemux многоголосый -Позитив] Ворон Скачать
    1 | 0
    T Фильмы [HD 720p, 1080p] (Хороший звук DUB, MVO) [ 4.27 GB ] Мистериум. Начало / Kvinden i buret [ 2013 Дания Германия Швеция BDRip720 ]MVO GEKADOL Скачать
    1 | 0

    28-11-2019 20:33  

    Отключить всю рекламу на сайте

    26-04-2014 18:45 Мистериум. Начало Скачать торрент  

    Мне понравился!pb.wtf



    27-04-2014 10:20 Мистериум. Начало Скачать торрент  

    Отличный фильм.pb.wtf



    27-04-2014 10:40 Мистериум. Начало Скачать торрент  

    Отличный фильм!!!pb.wtf



    28-04-2014 15:20 Мистериум. Начало Скачать торрент  

    отличный фильмец!pb.wtf



    29-04-2014 07:58 Мистериум. Начало Скачать торрент  

    фильм держит до последнего в напряжении.Смотреть.pb.wtf



      Дорогой пользователь! Огромная просьба, поблагодарите релизера, оцените раздачу и оставьте свои комментарий, если Вы скачали Мистериум. Начало через торрент бесплатно! Внесите свою лепту в развитие PiratBit!
      Комментировать посты могут только пользователи прошедшие не сложную регистрацию
      Показать сообщения:    

      Мистериум. Начало через торрент
      Скачать бесплатно Мистериум. Начало
      Мистериум. Начало скачать торрент
      Мистериум. Начало смотреть онлайн
      Cкачать фильм Мистериум. Начало бесплатно
      Мистериум. Начало скачать торрент в хорошем качестве
      Мистериум. Начало смотреть онлайн бесплатно в хорошем качестве


      Вы не можете начинать темы
      Вы не можете отвечать на сообщения
      Вы не можете редактировать свои сообщения
      Вы не можете удалять свои сообщения
      Вы не можете голосовать в опросах
      Вы не можете прикреплять файлы к сообщениям
      Вы можете скачивать файлы