Ссылка на приватное зеркало нашего сайта всего за 1$. Внимание количество ограничено!!!

2 сезон

iTunes

1 сезон

1

2 сезон

2 сезон

iTunes

1 сезон

RePack

30

Новинка

ВАЖНО

ИГРА 18+

pack

RePack

MK11
pack

Забери бонус

RePack

jed

!!Акция!!

Alien_Rage

RePack

fifa19

RePack

Assassins Creed: Odyssey

RePack

NEED FOR SPEED™ PAYBACK

4 сезон

9 сезон

Бесстыжие 9 сезон

Все сериалы

все сериалы на PB.wtf

RePack

FAR CRY 5
  

Нимфоманка: Часть 2 / Nymphomaniac: Vol. II (Ларс фон Триер) [2013 г., драма, детектив, BDRemux, Дубляж][Чистый звук] pb.wtf

Нимфоманка: Часть 2 через торрент pb.wtf

Размер: 22.53 GB | Добавлен: 6 лет 7 мес. назад | Торрент скачан:248 раз
Скачать  

26-04-2014 09:36 Нимфоманка: Часть 2 Скачать торрент  


Название: Нимфоманка: Часть 2
Оригинальное название: Nymphomaniac: Vol. II
Год выхода: 2013
Продолжительность: 02:03
Перевод: Дублированный /Чистый звук/
Субтитры: нет
Жанр: драма, детектив
Страна: Дания, Бельгия, Франция, Германия, Великобритания
Режиссер: Ларс фон Триер
В ролях: Шарлотта Генсбур, Стеллан Скарсгард, Шайа ЛаБаф, Джейми Белл, Стэйси Мартин, Уиллем Дефо, Миа ГотЖан-Марк, БаррМайкл, ПасМорган Хартли
Описание:
Продолжение истории нимфоманки по имени Джо, чья жизнь была полна множества эротических переживаний, впечатлений и опытов. Она рассказывает о себе немолодому одинокому холостяку Селигману, который наткнулся на нее, избитую и находящуюся в полубессознательном состоянии, в переулке, доставил к себе домой и выходил…

Качество: BDRemux 1080p
Формат: MKV
Видео кодек: H.264
Аудио кодек: AC3
Видео: 1 920 x 1 080 pixels, 23.976 fps,25.2 Mbps
Звук: AC-3, 48.0 KHz, 6 ch, 384 Kbps
Format : Matroska
Format version : Version 4 / Version 2
File size : 22.5 GiB
Duration : 2h 3mn
Overall bit rate mode : Variable
Overall bit rate : 26.1 Mbps
Encoded date : UTC 2014-04-25 22:22:32
Writing application : mkvmerge v6.9.1 ('Blue Panther') 64bit built on Apr 18 2014 18:23:38
Writing library : libebml v1.3.0 + libmatroska v1.4.1

Video
ID : 1
Format : AVC
Format/Info : Advanced Video Codec
Format profile : High@L4.1
Format settings, CABAC : Yes
Format settings, ReFrames : 4 frames
Codec ID : V_MPEG4/ISO/AVC
Duration : 2h 3mn
Bit rate mode : Variable
Bit rate : 25.2 Mbps
Maximum bit rate : 35.0 Mbps
Width : 1 920 pixels
Height : 1 080 pixels
Display aspect ratio : 16:9
Frame rate mode : Constant
Frame rate : 23.976 fps
Standard : NTSC
Color space : YUV
Chroma subsampling : 4:2:0
Bit depth : 8 bits
Scan type : Progressive
Bits/(Pixel*Frame) : 0.507
Stream size : 21.8 GiB (97%)
Title : Nymphomaniac - Vol. II 2013 1080p
Language : English
Default : Yes
Forced : No
Color primaries : BT.709
Transfer characteristics : BT.709
Matrix coefficients : BT.709

Audio
ID : 2
Format : AC-3
Format/Info : Audio Coding 3
Mode extension : CM (complete main)
Format settings, Endianness : Big
Codec ID : A_AC3
Duration : 2h 3mn
Bit rate mode : Constant
Bit rate : 384 Kbps
Channel count : 6 channels
Channel positions : Front: L C R, Side: L R, LFE
Sampling rate : 48.0 KHz
Bit depth : 16 bits
Compression mode : Lossy
Stream size : 339 MiB (1%)
Default : Yes
Forced : No
pb.wtf



Скачать Нимфоманка: Часть 2 через торрент http://pic.kartinco.top/new/img/2014-05/12/6c94qrzy8795xm3apdke8mj17.jpg Скачать фильм Нимфоманка: Часть 2 через торрент бесплантно в хорошем качестве Описание: Продолжение истории нимфоманки по имени Джо, чья жизнь была полна множества эротических переживаний, впечатлений и опытов. Она ... 10 10 10
Info! Золотая раздача, скачанное не засчитывается.
Торрент: Зарегистрирован [2014-04-26 09:36] · скачан: 248 раз
Статус: T временная
Размер: 22.53 GB
Как cкачать? Как скачать Нимфоманка: Часть 2 через торрент | qTorrent

% Раздел Тема Автор DL S | L
Фильмы [HD 720p, 1080p] (Хороший звук DUB, MVO) [ 26.65 GB ] Нимфоманка: Часть 1-2 / Nymphomaniac: Vol. I-II [2013 BDRip 1080p Любительский многоголосый|HamsterStudio] nn99nn Скачать
1 | 0
Фильмы с авторской озвучкой [ 2.18 GB ] Нимфоманка: Часть 2 / Nymphomaniac: Vol. II [2013 BDRip-AVC] AVO [Ю.Сербин] potroks Скачать
1 | 0
T Арт-хаус и авторское кино [ 2.06 GB ] Нимфоманка: Часть 2 / Nymphomaniac: Vol. II [2013 HDRip ][Чистый звук] Tipok_dv Скачать
1 | 0


Последний раз редактировалось: Ворон (2014-05-12 11:24), всего редактировалось 1 раз

28-11-2019 20:33  

Отключить всю рекламу на сайте

26-04-2014 09:39 Нимфоманка: Часть 2 Скачать торрент  

    Дорогой пользователь! Огромная просьба, поблагодарите релизера, оцените раздачу и оставьте свои комментарий, если Вы скачали Нимфоманка: Часть 2 через торрент бесплатно! Внесите свою лепту в развитие PiratBit!
    Комментировать посты могут только пользователи прошедшие не сложную регистрацию
    Показать сообщения:    

    Нимфоманка: Часть 2 через торрент
    Скачать бесплатно Нимфоманка: Часть 2
    Нимфоманка: Часть 2 скачать торрент
    Нимфоманка: Часть 2 смотреть онлайн
    Cкачать фильм Нимфоманка: Часть 2 бесплатно
    Нимфоманка: Часть 2 скачать торрент в хорошем качестве
    Нимфоманка: Часть 2 смотреть онлайн бесплатно в хорошем качестве


    Вы не можете начинать темы
    Вы не можете отвечать на сообщения
    Вы не можете редактировать свои сообщения
    Вы не можете удалять свои сообщения
    Вы не можете голосовать в опросах
    Вы не можете прикреплять файлы к сообщениям
    Вы можете скачивать файлы