Мега распродажа FORZA HORIZON 4 ULTIMATE+ВСЕ DLC+ОНЛАЙН всего за 499р. 349 руб. (супер цена). Внимание количество ограничено!!!

iTunes

1+1

iTunes

мы

iTunes

1

1 сезон

Чернобыль

1 сезон

Ральф против интернета

Лицензия

ПШазам

8 сезон

Игра престолов

Лицензия

30
pack

ВАЖНО

!!Акция!!

Alien_RageХит недели

RePack

Resident Evil 21

ИГРА 18+

pack

RePack

Metro:Exodus

!!Акция!!

Alien_Rage

RePack

fifa19

RePack

Assassins Creed: Odyssey

RePack

NEED FOR SPEED™ PAYBACK

3 сезон

9 сезон

Бесстыжие 9 сезон

Все сериалы

все сериалы на PB.wtf

RePack

FAR CRY 5
Ребята, катастрофически не хватает 2730р. для оплаты серверов за ИЮНЬ (всвязи с блокировками трафик упал в 3 раза), 1-2р., выручайте.
  

Берега / Серии 1-2 из 2 (Кира Ангелина) [2013 г., Мелодрама, WEB-DLRip] pb.wtf

Берега через торрент pb.wtf

Размер: 1.91 GB | Добавлен: 5 лет 2 мес. назад | Торрент скачан:290 раз
Скачать  

26-04-2014 11:20 Берега Скачать торрент  

БерегаГод выпуска: 2013
Страна: Россия, КК "Русское
Жанр: Мелодрама
Продолжительность: 2 x ~ 01:30:00

Режиссер: Кира Ангелина

В ролях: Анастасия Пронина, Кирилл Запорожский, Ирина Розанова, Екатерина Дубакина, Сергей Шеховцов, Людмила Полякова

Описание: Таня учится в выпускном классе деревенской школы. После смерти родителей ее в строгости воспитывает бабушка, и девушка мечтает вырваться из-под опеки, чтобы ощутить вкус свободы. И, кажется, первая любовь поможет ей в этом. Однако Таня обманывается в своих надеждах. Одноклассник Сергей бросает ее, как только узнает, что она ждет от него ребенка. Мама Сергея тоже против ребенка, но девушка проявляет характер и не соглашается на аборт. Однако все против нее: вырываясь от матери Сергея, девушка падает с лестницы. Приговор врачей оказывается страшным: у Тани больше никогда не будет детей. Однако вопреки всему, героиня решает начать жизнь сначала...

Качество: WEB-DLRip
Формат: AVI
Видео кодек: XviD
Аудио кодек: AC3
Видео: MPEG4, XviD, 720x400 (16:9), 25.000 fps, 1 398 Kbps (0.194 bit/pixel)
Аудио: AC3, 44.1 KHz, 2 ch, 128 Kbps, CBR

Код:

Формат                                   : AVI
Формат/Информация                        : Audio Video Interleave
Размер файла                             : 981 Мбайт
Продолжительность                        : 1 ч. 29 м.
Общий поток                              : 1535 Кбит/сек
Библиотека кодирования                   : VirtualDub build 32507/release

Видео
Идентификатор                            : 0
Формат                                   : MPEG-4 Visual
Профиль формата                          : Advanced Simple@L5
Параметр BVOP формата                    : 2
Параметр QPel формата                    : Нет
Параметр GMC формата                     : Без точки перехода
Параметр матрицы формата                 : Default (H.263)
Режим смешивания                         : Сжатый битовый поток
Идентификатор кодека                     : XVID
Идентификатор кодека/Подсказка           : XviD
Продолжительность                        : 1 ч. 29 м.
Битрейт                                  : 1398 Кбит/сек
Ширина                                   : 720 пикселей
Высота                                   : 400 пикселей
Соотношение сторон                       : 16:9
Частота кадров                           : 25,000 кадров/сек
Цветовое пространство                    : YUV
Субдискретизация насыщенности            : 4:2:0
Битовая глубина                          : 8 бит
Тип развёртки                            : Прогрессивная
Метод сжатия                             : С потерями
Бит/(Пиксели*Кадры)                      : 0.194
Размер потока                            : 893 Мбайт (91%)
Библиотека кодирования                   : XviD 1.1.2 (UTC 2006-11-01)

Аудио
Идентификатор                            : 1
Формат                                   : AC-3
Формат/Информация                        : Audio Coding 3
Расширение режима                        : CM (complete main)
Параметр Endianness формата              : Big
Идентификатор кодека                     : 2000
Продолжительность                        : 1 ч. 29 м.
Вид битрейта                             : Постоянный
Битрейт                                  : 128 Кбит/сек
Каналы                                   : 2 канала
Расположение каналов                     : Front: L R
Частота                                  : 44,1 КГц
Битовая глубина                          : 16 бит
Метод сжатия                             : С потерями
Размер потока                            : 81,6 Мбайт (8%)
Выравнивание                             : Соединение по промежуткам
Продолжительность промежутка             : 40  мс. (1,00 видеокадр)
Время предзагрузки промежутка            : 522  мс.


pb.wtf



Скачать Берега через торрент http://pic.kartinco.top/images/6/ae153.jpg Скачать фильм Берега через торрент бесплантно в хорошем качестве Описание: Таня учится в выпускном классе деревенской школы. После смерти родителей ее в строгости воспитывает бабушка, и девушка мечтает ... 9.7 10 7
Info! Золотая раздача, скачанное не засчитывается.
Торрент: Зарегистрирован [2014-04-26 11:20] · скачан: 290 раз
Статус: √ проверено
Размер: 1.91 GB
Как cкачать? Как скачать Берега через торрент | qTorrent


>> Регистрируемся здесь <<






Отзывы и комментарии о схеме читаем и пишем здесь: ---> Отзывы и комментарии о схеме

Новые благодарочки в телеграм довольных пользователей:
скриншот   скриншот   скриншот   скриншот   скриншот

04-08-2014 19:01 Берега Скачать торрент  

Спасибо, посмотрю с удовольствием.pb.wtf



    Дорогой пользователь! Огромная просьба, поблагодарите релизера, оцените раздачу и оставьте свои комментарий, если Вы скачали Берега через торрент бесплатно! Внесите свою лепту в развитие PiratBit!
    Комментировать посты могут только пользователи прошедшие не сложную регистрацию
    Показать сообщения:    

    Берега через торрент
    Скачать бесплатно Берега
    Берега скачать торрент
    Берега смотреть онлайн
    Cкачать фильм Берега бесплатно
    Берега скачать торрент в хорошем качестве
    Берега смотреть онлайн бесплатно в хорошем качестве


    Вы не можете начинать темы
    Вы не можете отвечать на сообщения
    Вы не можете редактировать свои сообщения
    Вы не можете удалять свои сообщения
    Вы не можете голосовать в опросах
    Вы не можете прикреплять файлы к сообщениям
    Вы можете скачивать файлы