Мега распродажа FORZA HORIZON 4 ULTIMATE+ВСЕ DLC+ОНЛАЙН всего за 499р. 349 руб. (супер цена). Внимание количество ограничено!!!

iTunes

1+1

iTunes

мы

iTunes

1

1 сезон

Чернобыль

1 сезон

Ральф против интернета

Лицензия

ПШазам

8 сезон

Игра престолов

Лицензия

30
pack

ВАЖНО

!!Акция!!

Alien_RageХит недели

RePack

Resident Evil 21

ИГРА 18+

pack

RePack

Metro:Exodus

!!Акция!!

Alien_Rage

RePack

fifa19

RePack

Assassins Creed: Odyssey

RePack

NEED FOR SPEED™ PAYBACK

3 сезон

9 сезон

Бесстыжие 9 сезон

Все сериалы

все сериалы на PB.wtf

RePack

FAR CRY 5
Ребята, катастрофически не хватает 2730р. для оплаты серверов за ИЮНЬ (всвязи с блокировками трафик упал в 3 раза), 1-2р., выручайте.
  

На одном дыхании / 1-4 серии из 4 (Александр Соловьёв) [2014 г., Детектив, SATRip] pb.wtf

На одном дыхании через торрент pb.wtf

Размер: 2.37 GB | Добавлен: 5 лет 2 мес. назад | Торрент скачан:546 раз
Скачать  

26-04-2014 13:04 На одном дыхании Скачать торрент  

На одном дыхании Год выпуска: 2014
Страна: Россия
Жанр: Детектив
Продолжительность: 180 минут

Режиссер: Александр Соловьёв

В ролях: Дарья Чаруша, Андрей Биланов, Ирина Гринева, Валерий Трошин, Алексей Юдников, Ольга Волкова, Олег Марусев, Екатерина Соловьева

Описание: Владимир Разлогов – успешный бизнесмен. Главный его помощник – заместитель Марк Волошин, с которым Разлогов дружит со студенческих лет. Владимир счастлив и в личной жизни: жена Глафира очень любит мужа, и у него сохранились хорошие отношения с бывшей супругой Мариной – известной актрисой. Но однажды всё меняется... В утренних новостях сообщают, что Разлогов скончался от сердечного приступа у себя на даче. Оставшись одна, Глафира пытается выяснить, кто виноват в случившемся...

Качество: SATRip
Формат: AVI
Видео кодек: XviD
Аудио кодек: MP3
Видео: MPEG4, XviD, 720x400 (16:9), 25.000 fps, 1 801 Kbps (0.250 bit/pixel)
Аудио#1: MP3, 48.0 KHz, 2 ch, 128 Kbps, CBR
Формат : AVI
Формат/Информация : Audio Video Interleave
Размер файла : 619 Мбайт
Продолжительность : 44 м.
Общий поток : 1938 Кбит/сек
Библиотека кодирования : VirtualDub build 32817/release

Видео
Идентификатор : 0
Формат : MPEG-4 Visual
Профиль формата : Advanced Simple@L5
Параметр BVOP формата : 2
Параметр QPel формата : Нет
Параметр GMC формата : Без точки перехода
Параметр матрицы формата : Default (MPEG)
Идентификатор кодека : XVID
Идентификатор кодека/Подсказка : XviD
Продолжительность : 44 м.
Битрейт : 1801 Кбит/сек
Ширина : 720 пикселей
Высота : 400 пикселей
Соотношение сторон : 16:9
Частота кадров : 25,000 кадров/сек
Цветовое пространство : YUV
Субдискретизация насыщенности : 4:2:0
Битовая глубина : 8 бит
Тип развёртки : Прогрессивная
Метод сжатия : С потерями
Бит/(Пиксели*Кадры) : 0.250
Размер потока : 575 Мбайт (93%)
Библиотека кодирования : XviD 1.2.1 (UTC 2008-12-04)

Аудио
Идентификатор : 1
Формат : MPEG Audio
Версия формата : Version 1
Профиль формата : Layer 3
Режим : Joint stereo
Расширение режима : MS Stereo
Идентификатор кодека : 55
Идентификатор кодека/Подсказка : MP3
Продолжительность : 44 м.
Вид битрейта : Постоянный
Битрейт : 128 Кбит/сек
Каналы : 2 канала
Частота : 48,0 КГц
Метод сжатия : С потерями
Размер потока : 40,9 Мбайт (7%)
Выравнивание : Разделение по промежуткам
Продолжительность промежутка : 40 мс. (1,00 видеокадр)
Время предзагрузки промежутка : 500 мс.[/code]
pb.wtf



Скачать На одном дыхании через торрент http://pic.kartinco.top/images/6/5i8p7.jpg Скачать фильм На одном дыхании через торрент бесплантно в хорошем качестве Описание: Владимир Разлогов – успешный бизнесмен. Главный его помощник – заместитель Марк Волошин, с которым Разлогов дружит со ... 9 10 15
Info! Золотая раздача, скачанное не засчитывается.
Торрент: Зарегистрирован [2014-04-26 13:04] · скачан: 546 раз
Статус: √ проверено
Размер: 2.37 GB
Как cкачать? Как скачать На одном дыхании через торрент | qTorrent


>> Регистрируемся здесь <<






Отзывы и комментарии о схеме читаем и пишем здесь: ---> Отзывы и комментарии о схеме

Новые благодарочки в телеграм довольных пользователей:
скриншот   скриншот   скриншот   скриншот   скриншот

08-08-2014 19:13 На одном дыхании Скачать торрент  

Спасибо, жена будет смотреть с удовольствием.pb.wtf



    Дорогой пользователь! Огромная просьба, поблагодарите релизера, оцените раздачу и оставьте свои комментарий, если Вы скачали На одном дыхании через торрент бесплатно! Внесите свою лепту в развитие PiratBit!
    Комментировать посты могут только пользователи прошедшие не сложную регистрацию
    Показать сообщения:    

    На одном дыхании через торрент
    Скачать бесплатно На одном дыхании
    На одном дыхании скачать торрент
    На одном дыхании смотреть онлайн
    Cкачать фильм На одном дыхании бесплатно
    На одном дыхании скачать торрент в хорошем качестве
    На одном дыхании смотреть онлайн бесплатно в хорошем качестве


    Вы не можете начинать темы
    Вы не можете отвечать на сообщения
    Вы не можете редактировать свои сообщения
    Вы не можете удалять свои сообщения
    Вы не можете голосовать в опросах
    Вы не можете прикреплять файлы к сообщениям
    Вы можете скачивать файлы