Всегда рабочее зеркало без VPN и Proxy просто перед .vidak.icu напиши любое слово или цифру, Пример http://9npr.vidak.icu

MVO

MVO

1 сезон

1

1 сезон

iTunes

1 сезон

13

1 сезон

Deluxe

pack

Рекомендуем

Repack

30

ВАЖНО

RePack

MK11

RePack

jed

RePack

fifa19

RePack

RDR2

RePack

NEED FOR SPEED™ PAYBACK

Кинопоиск HD

6 сезон

 Острые козырьки 6 сезон

Все сериалы

все сериалы на PB.wtf

RePack

FAR CRY 5
  
Magnet ссылка

Укрощение строптивого / Il bisbetico domato (Франко Кастеллано, Джузеппе Моччиа) [1980 г., комедия,, BDRip 1080p, Дубляж + Оригинал] pb.wtf

Укрощение строптивого через торрент pb.wtf

Раздают: 1 [ 0 KB/s ]
Размер: 6.27 GB | Добавлен: 8 лет 3 мес. назад | Торрент скачан:824 раза
Смотреть онлайн Укрощение строптивого | Скачать    Ребята, помогите собрать деньги на оплату серверов!!!

26-04-2014 16:19 Укрощение строптивого Скачать торрент  

Укрощение строптивого / Il bisbetico domato
Год выпуска: 1980
Страна: Италия, Capital Film
Жанр: комедия,
Продолжительность: 01:46:38
Перевод: Дубляж + Оригинал

Режиссер: Франко Кастеллано, Джузеппе Моччиа
Продюссер: Марио Чекки Гори, Витторио Чекки Гори
Сценарий: Франко Кастеллано, Джузеппе Моччиа, Уильям Шекспир

Премьера в мире: 20 декабря 1980

В ролях: Адриано Челентано, Орнелла Мути, Эдит Питерс, Пиппо Сантонастасо, Милли Карлуччи, Сандро Гиани, Николя Дель Буоно, Винченцо Де Тома, Джимми иль Феномено, Елена Мари

Роли дублировали: Рудольф Панков, Ольга Гаспарова, Тамара Сёмина, Георгий Вицин, Лариса Виккел

Описание: Категорически не приемлющий женского общества грубоватый фермер вполне счастлив и доволен своей холостяцкой жизнью. Но неожиданно появившаяся в его жизни героиня пытается изменить его взгляды на жизнь и очаровать его. Что же из этого получится…

Качество: BDRip 1080p
Формат: MKV
Видео кодек: H.264
Аудио кодек: AC3
Видео: x264, 1920x1080 (16/9), 24.000 fps, 7996 Kbps (0.161 bit/pixel)
Аудио#1: AC-3, 48.0 KHz, 2 ch, 192 Kbps, CBR (Russian)
Аудио#2: AC-3, 48.0 KHz, 2 ch, 224 Kbps, CBR (Italian)



скриншот   скриншот   скриншот   скриншот   скриншот  
Общее
Уникальный идентификатор : 172475384159940595662087968441928255390 (0x81C18CFAD3FA6DB0BADFA659830C079E)
Полное имя : E:\Ukroschenie stroptivogo.1980.x264.BDRip.(1080p).Gipron.mkv
Формат : Matroska
Версия формата : Version 2
Размер файла : 6,27 Гбайт
Продолжительность : 1 ч. 46 м.
Общий поток : 8414 Кбит/сек
Дата кодирования : UTC 2011-07-27 19:21:12
Программа кодирования : mkvmerge v3.4.0 ('Rapunzel') сборка от May 15 2010 09:38:20
Библиотека кодирования : libebml v0.8.0 + libmatroska v0.9.0

Видео
Идентификатор : 1
Формат : AVC
Формат/Информация : Advanced Video Codec
Профиль формата : [email protected]
Параметр CABAC формата : Да
Параметр ReFrames формата : 4 кадра
Идентификатор кодека : V_MPEG4/ISO/AVC
Продолжительность : 1 ч. 46 м.
Битрейт : 7996 Кбит/сек
Ширина : 1920 пикселей
Высота : 1080 пикселей
Соотношение сторон : 16:9
Режим частоты кадров : Постоянный
Частота кадров : 24,000 кадра/сек
Цветовое пространство : YUV
Субдискретизация насыщенности : 4:2:0
Битовая глубина : 8 бит
Тип развёртки : Прогрессивная
Бит/(Пиксели*Кадры) : 0.161
Размер потока : 5,83 Гбайт (93%)
Заголовок : Укрощение Строптивого.1980.Rip.by Gipron
Библиотека кодирования : x264 core 115 r1937 aa21558
Настройки программы : cabac=1 / ref=4 / deblock=1:-1:-1 / analyse=0x3:0x113 / me=umh / subme=8 / psy=1 / psy_rd=1.00:0.10 / mixed_ref=1 / me_range=16 / chroma_me=1 / trellis=1 / 8x8dct=1 / cqm=0 / deadzone=21,11 / fast_pskip=1 / chroma_qp_offset=-3 / threads=3 / sliced_threads=0 / nr=0 / decimate=1 / interlaced=0 / bluray_compat=0 / constrained_intra=0 / bframes=3 / b_pyramid=2 / b_adapt=2 / b_bias=0 / direct=3 / weightb=1 / open_gop=0 / weightp=2 / keyint=250 / keyint_min=23 / scenecut=40 / intra_refresh=0 / rc_lookahead=50 / rc=2pass / mbtree=1 / bitrate=7996 / ratetol=1.0 / qcomp=0.60 / qpmin=0 / qpmax=69 / qpstep=4 / cplxblur=20.0 / qblur=0.5 / ip_ratio=1.40 / aq=1:1.00
Язык : Russian
Default : Нет
Forced : Нет

Аудио #1
Идентификатор : 2
Формат : AC-3
Формат/Информация : Audio Coding 3
Профиль формата : Dolby Digital
Расширение режима : CM (complete main)
Параметр Endianness формата : Big
Идентификатор кодека : A_AC3
Продолжительность : 1 ч. 46 м.
Вид битрейта : Постоянный
Битрейт : 192 Кбит/сек
Каналы : 2 канала
Расположение каналов : Front: L R
Частота : 48,0 КГц
Битовая глубина : 16 бит
Метод сжатия : С потерями
Размер потока : 146 Мбайт (2%)
Заголовок : Дубляж.AC3.192.kbps.2.ch.
Язык : Russian
Default : Нет
Forced : Нет

Аудио #2
Идентификатор : 3
Формат : AC-3
Формат/Информация : Audio Coding 3
Расширение режима : CM (complete main)
Параметр Endianness формата : Big
Идентификатор кодека : A_AC3
Продолжительность : 1 ч. 46 м.
Вид битрейта : Постоянный
Битрейт : 224 Кбит/сек
Каналы : 2 канала
Расположение каналов : Front: L R
Частота : 48,0 КГц
Битовая глубина : 16 бит
Метод сжатия : С потерями
Размер потока : 171 Мбайт (3%)
Заголовок : Оригинальный.AC3.224.kbps.2.ch.
Язык : Italian
Default : Да
Forced : Нет
pb.wtf



Скачать Укрощение строптивого через торрент https://pic1.kartinco.top/images/61/mvyi2.jpg Скачать, смотреть онлайн Укрощение строптивого бесплантно в хорошем качестве Описание: Категорически не приемлющий женского общества грубоватый фермер вполне счастлив и доволен своей холостяцкой жизнью. Но неожиданно ... 10 10 17
Info! Золотая раздача, скачанное не засчитывается.
Торрент: Зарегистрирован [2014-04-26 16:19] · скачан: 824 раз
Статус: √ проверено
Размер: 6.27 GB
Как cкачать? Как скачать Укрощение строптивого через торрент | UTorrent

% Раздел Тема Автор DL S | L
Фильмы (HD 720p, 1080p) (48-60 fps) [ 4.65 GB ] Укрощение строптивого / Il Bisbetico Domato [1980 BDRip 720p / 60 fps] DUB еnvy Скачать
1 | 0
Фильмы [HD 720p, 1080p] (Хороший звук DUB, MVO) [ 7.41 GB ] Укрощение строптивого / Il bisbetico domato [1980 BDRip ] Flint3 Скачать
1 | 0
Классика зарубежного кино [ 2 GB ] Укрощение строптивого / Il Bisbetico domato [1980 DVDRip MVO лицензия] GOLD_Alex Скачать
1 | 0
Фильмы до 2000 г. [ 2.01 GB ] Укрощение строптивого / Il bisbetico domato [1980 DVDRip] feldeger Скачать
1 | 0
Фильмы до 2000 г. [ 1.36 GB ] Укрощение строптивого / Il bisbetico domato [1980 DVDRip] MoNaZ Скачать
1 | 0

28-11-2019 20:33  

Отключить вcю реклaмy на сайте

26-04-2014 19:03 Укрощение строптивого Скачать торрент  

Офигенный фильм в качестве! Спасибо! Жаль, таких сейчас не снимают...pb.wtf



    Дорогой пользователь! Огромная просьба, поблагодарите релизера, оцените раздачу и оставьте свои комментарий, если Вы скачали Укрощение строптивого через торрент бесплатно!
    Комментировать посты могут только пользователи прошедшие не сложную регистрацию
    Показать сообщения:    

    Укрощение строптивого через торрент
    Скачать бесплатно Укрощение строптивого
    Укрощение строптивого скачать торрент
    Укрощение строптивого смотреть онлайн
    Cкачать фильм Укрощение строптивого бесплатно
    Укрощение строптивого скачать торрент в хорошем качестве
    Укрощение строптивого смотреть онлайн бесплатно в хорошем качестве


    Вы не можете начинать темы
    Вы не можете отвечать на сообщения
    Вы не можете редактировать свои сообщения
    Вы не можете удалять свои сообщения
    Вы не можете голосовать в опросах
    Вы не можете прикреплять файлы к сообщениям
    Вы можете скачивать файлы