Всегда рабочее зеркало без VPN и Proxy просто перед .vidak.icu напиши любое слово или цифру, Пример http://fgfd.vidak.icu

MVO

Лицензия

1 сезон

1

1 сезон

iTunes

1 сезон

13

1 сезон

Deluxe

pack

Рекомендуем

Repack

30

ВАЖНО

RePack

MK11

RePack

jed

RePack

fifa19

RePack

RDR2

RePack

NEED FOR SPEED™ PAYBACK

Кинопоиск HD

6 сезон

 Острые козырьки 6 сезон

Все сериалы

все сериалы на PB.wtf

RePack

FAR CRY 5
  
Magnet ссылка

Имплант / Implanted (Томас Верретте) [2013 г., фантастика, триллер, драма, детектив, HDRip, Любительский двухголосый] pb.wtf

Имплант через торрент pb.wtf

Размер: 1.45 GB | Добавлен: 8 лет 2 мес. назад | Торрент скачан:124 раза
Смотреть онлайн Имплант | Скачать    Ребята, помогите собрать деньги на оплату серверов!!!

26-04-2014 17:05 Имплант Скачать торрент  

Имплант / Implanted
Год выпуска: 2013
Страна: США / Gold Lion Films, Skylight Cinema
Жанр: фантастика, триллер, драма, детектив
Продолжительность: 01:25:31
Перевод: Любительский двухголосый (DeadSno & den904)

Режиссер: Томас Верретте

В ролях: Джастис Лик, Роберт Пралго, Элизабет Кинер, Джейсон Тернер, Дебора Чайлдз, Тара Джин Верретте, Джеки Голдстон, Брайан Джеймс Ирвин, Стивен Эллисон, Стивен Кодилл

Описание: Однажды наступает новый день. Но что делать, если в нем нет места для вчера и, возможно, уже не будет места для завтра? Сын профессора-нейрохирурга отправляется в путешествие по закоулкам своей памяти, чтобы понять, почему у него забрали его память и что за воспоминания ему дали взамен...

Качество: HDRip
Формат: AVI
Видео кодек: XviD
Аудио кодек: AC3
Видео: 720x304 (2.37:1), 29.970 fps, XviD MPEG-4 ~1969 kbps avg, 0.30 bit/pixel
Аудио: 48 kHz, AC3 Dolby Digital, 3/2 (L,C,R,l,r) + LFE ch, ~448 kbps

Общее
Полное имя : H:\кино\Implanted.2013.HDRip.avi
Формат : AVI
Формат/Информация : Audio Video Interleave
Размер файла : 1,45 Гбайт
Продолжительность : 1 ч. 25 м.
Общий поток : 2429 Кбит/сек
Программа кодирования : VirtualDubMod 1.5.10.2 (build 2542/release)
Библиотека кодирования : VirtualDubMod build 2542/release

Видео
Идентификатор : 0
Формат : MPEG-4 Visual
Профиль формата : Advanced [email protected]
Параметр BVOP формата : 1
Параметр QPel формата : Нет
Параметр GMC формата : Без точки перехода
Параметр матрицы формата : Default (H.263)
Режим смешивания : Сжатый битовый поток
Идентификатор кодека : XVID
Идентификатор кодека/Подсказка : XviD
Продолжительность : 1 ч. 25 м.
Битрейт : 1969 Кбит/сек
Ширина : 720 пикселей
Высота : 304 пикселя
Соотношение сторон : 2,35:1
Частота кадров : 29,970 кадров/сек
Цветовое пространство : YUV
Субдискретизация насыщенности : 4:2:0
Битовая глубина : 8 бит
Тип развёртки : Прогрессивная
Метод сжатия : С потерями
Бит/(Пиксели*Кадры) : 0.300
Размер потока : 1,18 Гбайт (81%)
Библиотека кодирования : XviD 64

Аудио
Идентификатор : 1
Формат : AC-3
Формат/Информация : Audio Coding 3
Расширение режима : CM (complete main)
Параметр Endianness формата : Big
Идентификатор кодека : 2000
Продолжительность : 1 ч. 25 м.
Вид битрейта : Постоянный
Битрейт : 448 Кбит/сек
Каналы : 6 каналов
Расположение каналов : Front: L C R, Side: L R, LFE
Частота : 48,0 КГц
Битовая глубина : 16 бит
Метод сжатия : С потерями
Размер потока : 274 Мбайт (18%)
Выравнивание : Разделение по промежуткам
Продолжительность промежутка : 33 мс. (1,00 видеокадр)
Время предзагрузки промежутка : 500 мс.

pb.wtf



Скачать Имплант через торрент https://pic1.kartinco.top/images/61/yxtg3.jpg Скачать, смотреть онлайн Имплант бесплантно в хорошем качестве Описание: Однажды наступает новый день. Но что делать, если в нем нет места для вчера и, возможно, уже не будет места для завтра? Сын ... 10 10 5
Торрент: Зарегистрирован [2014-04-26 17:05] · скачан: 124 раз
Статус: T временная
Размер: 1.45 GB
Как cкачать? Как скачать Имплант через торрент | UTorrent

% Раздел Тема Автор DL S | L
Фильмы 2021 [DVDrip, WEB-DLRip, HDrip] (DUB, MVO) [ 722 MB ] Имплант / Implanted [2021 WEB-DLRip ""] coc900 Скачать
1 | 0
Фильмы 2021 [DVDrip, WEB-DLRip, HDrip] (DUB, MVO) [ 1.79 GB ] Имплант / Implanted [2021 WEB-DLRip-AVC] от ExKinoRay Lithuania Скачать
4 | 0
Фильмы 2021 [DVDrip, WEB-DLRip, HDrip] (DUB, MVO) [ 1.37 GB ] Имплант / Implanted [2021 WEB-DLRip] bober100 Скачать
2 | 0
Фильмы (WEB-DL 720p, 1080p) [ 7.41 GB ] Имплант / Implanted [2021 WEB-DL 1080p] -=BIGBOSS=- Скачать
3 | 0
Фильмы (WEB-DL 720p, 1080p) [ 5.71 GB ] Имплант / Implanted [2021 WEB-DL 720p] bober100 Скачать
2 | 0

28-11-2019 20:33  

Отключить всю рекламу на сайте

    Дорогой пользователь! Огромная просьба, поблагодарите релизера, оцените раздачу и оставьте свои комментарий, если Вы скачали Имплант через торрент бесплатно!
    Комментировать посты могут только пользователи прошедшие не сложную регистрацию
    Показать сообщения:    

    Имплант через торрент
    Скачать бесплатно Имплант
    Имплант скачать торрент
    Имплант смотреть онлайн
    Cкачать фильм Имплант бесплатно
    Имплант скачать торрент в хорошем качестве
    Имплант смотреть онлайн бесплатно в хорошем качестве


    Вы не можете начинать темы
    Вы не можете отвечать на сообщения
    Вы не можете редактировать свои сообщения
    Вы не можете удалять свои сообщения
    Вы не можете голосовать в опросах
    Вы не можете прикреплять файлы к сообщениям
    Вы можете скачивать файлы