Мега распродажа FORZA HORIZON 4 ULTIMATE+ВСЕ DLC+ОНЛАЙН всего за 499р. 349 руб. (супер цена). Внимание количество ограничено!!!

iTunes

1+1

iTunes

мы

iTunes

1

1 сезон

Чернобыль

1 сезон

Ральф против интернета

Лицензия

ПШазам

8 сезон

Игра престолов

Лицензия

30
pack

ВАЖНО

!!Акция!!

Alien_RageХит недели

RePack

Resident Evil 21

ИГРА 18+

pack

RePack

Metro:Exodus

!!Акция!!

Alien_Rage

RePack

fifa19

RePack

Assassins Creed: Odyssey

RePack

NEED FOR SPEED™ PAYBACK

3 сезон

9 сезон

Бесстыжие 9 сезон

Все сериалы

все сериалы на PB.wtf

RePack

FAR CRY 5
Ребята, катастрофически не хватает 2730р. для оплаты серверов за ИЮНЬ (всвязи с блокировками трафик упал в 3 раза), 1-2р., выручайте.
  

Танкисты своих не бросают / Серия 1-4 из 4 (Александр Грабарь) [2014 г., мелодрама, SATRip] pb.wtf

Танкисты своих не бросают через торрент pb.wtf

Размер: 2.28 GB | Добавлен: 5 лет 2 мес. назад | Торрент скачан:350 раз
Скачать  

26-04-2014 20:35 Танкисты своих не бросают Скачать торрент  

Танкисты своих не бросают Год выпуска: 2014
Страна: Россия
Жанр: мелодрама
Продолжительность: 4 х 45 минут

Режиссер: Александр Грабарь

В ролях: Ирина Пегова, Константин Милованов, Мария Луговая, Александр Яцко, Александр Никитин (IV), Екатерина Маликова, Борис Тенин (II), Алиса Гребенщикова, Анатолий Гущин, Александр Стёпин, Денис Юшечкин, Сергей Шеховцов

Описание: Наконец-то Марина счастлива. Одинокая женщина, потерявшая сына и мужа, она снова выходит замуж – за капитана танковых войск в отставке Федора. Но вскоре ее муж получает травму, после чего давнее ранение дает о себе знать. Федор при смерти. Спасти его может профессор Росман, местное светило медицины. Операция стоит больших денег, которых в семье нет, а бесплатно помочь врач отказывается. Марина продает все ценности, часть денег собирают однополчане ее мужа. Но с трудом собранную сумму крадут. А Федору становится все хуже. И тогда скромная женщина решается на отчаянный шаг: она похищает дочь профессора, Кристину, и требует спасти мужа в обмен на безопасность девуш

Качество: SATRip
Формат: AVI
Видео кодек: DivX
Аудио кодек: MP3
Видео: MPEG4, DivX 5, 720x384 (1.875), 25.000 fps, 1 599 Kbps (0.231 bit/pixel)
Аудио: MP3, 48.0 KHz, 2 ch, 128 Kbps, CBR
скриншот   скриншот   скриншот   скриншот   скриншот   скриншот   скриншот   скриншот  

Код:

Формат                                   : AVI
Формат/Информация                        : Audio Video Interleave
Размер файла                             : 582 Мбайт
Продолжительность                        : 46 м.
Общий поток                              : 1737 Кбит/сек
Программа кодирования                    : VirtualDubMod 1.5.10.2 (build 2540/release)
Библиотека кодирования                   : VirtualDub build 29808/release

Видео
Идентификатор                            : 0
Формат                                   : MPEG-4 Visual
Параметр BVOP формата                    : Нет
Параметр QPel формата                    : Нет
Параметр GMC формата                     : Без точки перехода
Параметр матрицы формата                 : Default (H.263)
Идентификатор кодека                     : DX50
Идентификатор кодека/Подсказка           : DivX 5
Продолжительность                        : 46 м.
Битрейт                                  : 1599 Кбит/сек
Ширина                                   : 720 пикселей
Высота                                   : 384 пикселя
Соотношение сторон                       : 1,85:1
Частота кадров                           : 25,000 кадров/сек
Цветовое пространство                    : YUV
Субдискретизация насыщенности            : 4:2:0
Битовая глубина                          : 8 бит
Тип развёртки                            : Прогрессивная
Метод сжатия                             : С потерями
Бит/(Пиксели*Кадры)                      : 0.231
Размер потока                            : 536 Мбайт (92%)
Библиотека кодирования                   : DivX 6.8.5 (UTC 2009-08-20)

Аудио
Идентификатор                            : 1
Формат                                   : MPEG Audio
Версия формата                           : Version 1
Профиль формата                          : Layer 3
Режим                                    : Joint stereo
Расширение режима                        : MS Stereo
Идентификатор кодека                     : 55
Идентификатор кодека/Подсказка           : MP3
Продолжительность                        : 46 м.
Вид битрейта                             : Постоянный
Битрейт                                  : 128 Кбит/сек
Каналы                                   : 2 канала
Частота                                  : 48,0 КГц
Метод сжатия                             : С потерями
Размер потока                            : 42,9 Мбайт (7%)
Выравнивание                             : Соединение по промежуткам
Продолжительность промежутка             : 40  мс. (1,00 видеокадр)
Время предзагрузки промежутка            : 504  мс.
Библиотека кодирования                   : LAME3.90.3ЄЄЄЄЄЄЄЄЄЄ


pb.wtf



Скачать Танкисты своих не бросают через торрент http://pic.kartinco.top/new/img/2014-04/26/0aq6d9en6r2amloxgahmctl4q.jpg Скачать фильм Танкисты своих не бросают через торрент бесплантно в хорошем качестве Описание: Наконец-то Марина счастлива. Одинокая женщина, потерявшая сына и мужа, она снова выходит замуж – за капитана танковых войск в ... 9.9 10 17
Info! Золотая раздача, скачанное не засчитывается.
Торрент: Зарегистрирован [2014-04-26 20:35] · скачан: 350 раз
Статус: √ проверено
Размер: 2.28 GB
Как cкачать? Как скачать Танкисты своих не бросают через торрент | qTorrent


>> Регистрируемся здесь <<






Отзывы и комментарии о схеме читаем и пишем здесь: ---> Отзывы и комментарии о схеме

Новые благодарочки в телеграм довольных пользователей:
скриншот   скриншот   скриншот   скриншот   скриншот

27-04-2014 06:25 Танкисты своих не бросают Скачать торрент  

в описании пересказали весь фильм))) смотреть даже не интересно . описание нужно по проще сделать.))pb.wtf



    Дорогой пользователь! Огромная просьба, поблагодарите релизера, оцените раздачу и оставьте свои комментарий, если Вы скачали Танкисты своих не бросают через торрент бесплатно! Внесите свою лепту в развитие PiratBit!
    Комментировать посты могут только пользователи прошедшие не сложную регистрацию
    Показать сообщения:    

    Танкисты своих не бросают через торрент
    Скачать бесплатно Танкисты своих не бросают
    Танкисты своих не бросают скачать торрент
    Танкисты своих не бросают смотреть онлайн
    Cкачать фильм Танкисты своих не бросают бесплатно
    Танкисты своих не бросают скачать торрент в хорошем качестве
    Танкисты своих не бросают смотреть онлайн бесплатно в хорошем качестве


    Вы не можете начинать темы
    Вы не можете отвечать на сообщения
    Вы не можете редактировать свои сообщения
    Вы не можете удалять свои сообщения
    Вы не можете голосовать в опросах
    Вы не можете прикреплять файлы к сообщениям
    Вы можете скачивать файлы