Ссылка на приватное зеркало нашего сайта всего за 1$. Внимание количество ограничено!!!

2 сезон

iTunes

1 сезон

1

2 сезон

2 сезон

iTunes

1 сезон

RePack

30

Ultimate

ВАЖНО

ИГРА 18+

pack

RePack

MK11
pack

Забери бонус

RePack

jed

!!Акция!!

Alien_Rage

RePack

fifa19

RePack

Assassins Creed: Odyssey

RePack

NEED FOR SPEED™ PAYBACK

4 сезон

9 сезон

Бесстыжие 9 сезон

Все сериалы

все сериалы на PB.wtf

RePack

FAR CRY 5
  

Корона и дракон / The Crown and the Dragon (Энн К. Блэк) [2013 г., фэнтези, приключения, BDRemux]MVO+VO| лицензия pb.wtf

Корона и дракон через торрент pb.wtf

Размер: 16.15 GB | Добавлен: 6 лет 6 мес. назад | Торрент скачан:76 раз
Скачать  

26-04-2014 21:07 Корона и дракон Скачать торрент  

Корона и дракон / The Crown and the Dragon
Страна: США / Arrowstorm Entertainment, Wulf / Gourley Productions
Жанр: фэнтези, приключения
Год выпуска: 2013
Продолжительность: 01:31:36
Перевод: Профессиональный (многоголосый закадровый) + любительский (одноголосый) - VANO
Cубтитры: русский, английский
Оригинальная аудиодорожка: английский
Режиссер: Энн К. Блэк / Anne K. Black
В ролях: Оуэн Бартон, Эми Де Брюн, Энгус Браун, Клер Кордингли, Стефан Дюбуа, Кайнен Гриффин, Дэвид Хейдн, Ава Хант, Грант Хатчинсон, Christophe Lombardi...
Описание:
Через истерзанную войной страну, страдающую от жестокого дракона, молодая дворянка сопровождает свою тетю, чтобы доставить древнюю реликвию на секретную коронацию законного короля.



Качество: BDRemux 1080p / BDRemux 1080p + DVD5 R5
Формат: MKV
Видео кодек: H.264
Аудио кодек:DTS-HD -AC3
Видео: 1920x1080, MPEG-4 AVC Video / 21962 kbps 1080p / 23,976 fps / 16:9 / High Profile 4.1
Аудио 1: 48 kHz, Dolby AC3, 6 ch, 448 kbps, русский Профессиональный
Аудио 2: 48 kHz, Dolby AC3, 6 ch, 448 kbps, русский Любительский
Аудио 3: English / DTS-HD Master Audio / 5.1 / 48 kHz / 2382 kbps / 16-bit / (DTS Core: 5.1 / 48 kHz / 1509 kbps / 16-bit)
Формат субтитров: SoftSub (srt)
Дополнительно:
Фильм разбит на главы, как на оригинальном Blu-ray диске.
Формат : Matroska
Версия формата : Version 4 / Version 2
Размер файла : 16,2 Гбайт
Продолжительность : 1 ч. 31 м.
Режим общего битрейта : Переменный
Общий поток : 25,2 Мбит/сек
Дата кодирования : UTC 2014-04-25 21:30:32
Программа кодирования : mkvmerge v6.9.1 ('Blue Panther') 64bit built on Apr 18 2014 18:23:38
Библиотека кодирования : libebml v1.3.0 + libmatroska v1.4.1

Видео
Идентификатор : 1
Формат : AVC
Формат/Информация : Advanced Video Codec
Профиль формата : High@L4.1
Параметр CABAC формата : Да
Параметр ReFrames формата : 4 кадра
Идентификатор кодека : V_MPEG4/ISO/AVC
Продолжительность : 1 ч. 31 м.
Вид битрейта : Переменный
Максимальный битрейт : 35,0 Мбит/сек
Ширина : 1920 пикселей
Высота : 1080 пикселей
Соотношение сторон : 16:9
Режим частоты кадров : Постоянный
Частота кадров : 23,976 кадра/сек
Цветовое пространство : YUV
Субдискретизация насыщенности : 4:2:0
Битовая глубина : 8 бит
Тип развёртки : Прогрессивная
Язык : English
Default : Да
Forced : Нет

Аудио #1
Идентификатор : 2
Формат : AC-3
Формат/Информация : Audio Coding 3
Расширение режима : CM (complete main)
Параметр Endianness формата : Big
Идентификатор кодека : A_AC3
Продолжительность : 1 ч. 31 м.
Вид битрейта : Постоянный
Битрейт : 448 Кбит/сек
Каналы : 6 каналов
Расположение каналов : Front: L C R, Side: L R, LFE
Частота : 48,0 КГц
Битовая глубина : 16 бит
Метод сжатия : С потерями
Размер потока : 294 Мбайт (2%)
Заголовок : MVO
Язык : Russian
Default : Да
Forced : Нет

Аудио #2
Идентификатор : 3
Формат : AC-3
Формат/Информация : Audio Coding 3
Расширение режима : CM (complete main)
Параметр Endianness формата : Big
Идентификатор кодека : A_AC3
Продолжительность : 1 ч. 31 м.
Вид битрейта : Постоянный
Битрейт : 448 Кбит/сек
Каналы : 6 каналов
Расположение каналов : Front: L C R, Side: L R, LFE
Частота : 48,0 КГц
Битовая глубина : 16 бит
Метод сжатия : С потерями
Размер потока : 294 Мбайт (2%)
Заголовок : L1 (VANO)
Язык : Russian
Default : Нет
Forced : Нет

Аудио #3
Идентификатор : 4
Формат : DTS
Формат/Информация : Digital Theater Systems
Профиль формата : MA / Core
Режим : 16
Параметр Endianness формата : Big
Идентификатор кодека : A_DTS
Продолжительность : 1 ч. 31 м.
Вид битрейта : Переменный
Битрейт : Неизвестно / 1509 Кбит/сек
Каналы : 6 каналов
Расположение каналов : Front: L C R, Side: L R, LFE
Частота : 48,0 КГц
Битовая глубина : 16 бит
Метод сжатия : Без потерь / Lossy
Язык : English
Default : Нет
Forced : Нет

Текст #1
Идентификатор : 5
Формат : UTF-8
Идентификатор кодека : S_TEXT/UTF8
Идентификатор кодека/Информация : UTF-8 Plain Text
Язык : Russian
Default : Нет
Forced : Нет

Текст #2
Идентификатор : 6
Формат : UTF-8
Идентификатор кодека : S_TEXT/UTF8
Идентификатор кодека/Информация : UTF-8 Plain Text
Заголовок : Forced
Язык : English
Default : Нет
Forced : Нет

Меню
00:00:00.000 : en:00:00:00.000
00:06:35.186 : en:00:06:35.186
00:16:41.876 : en:00:16:41.876
00:21:49.683 : en:00:21:49.683
00:26:26.376 : en:00:26:26.376
00:36:39.197 : en:00:36:39.197
00:48:11.722 : en:00:48:11.722
00:53:31.834 : en:00:53:31.834
01:02:21.071 : en:01:02:21.071
01:11:40.004 : en:01:11:40.004
01:20:03.507 : en:01:20:03.507
01:26:50.914 : en:01:26:50.914
pb.wtf



Скачать Корона и дракон через торрент http://i019.radikal.ru/1404/53/e55154188763.jpg Скачать фильм Корона и дракон через торрент бесплантно в хорошем качестве Описание: Через истерзанную войной страну, страдающую от жестокого дракона, молодая дворянка сопровождает свою тетю, чтобы доставить ... 5 10 5
Info! Золотая раздача, скачанное не засчитывается.
Торрент: Зарегистрирован [2014-04-26 21:07] · скачан: 76 раз
Статус: √ проверено
Размер: 16.15 GB
Как cкачать? Как скачать Корона и дракон через торрент | qTorrent

28-11-2019 20:33  

Отключить всю рекламу на сайте

    Дорогой пользователь! Огромная просьба, поблагодарите релизера, оцените раздачу и оставьте свои комментарий, если Вы скачали Корона и дракон через торрент бесплатно! Внесите свою лепту в развитие PiratBit!
    Комментировать посты могут только пользователи прошедшие не сложную регистрацию
    Показать сообщения:    

    Корона и дракон через торрент
    Скачать бесплатно Корона и дракон
    Корона и дракон скачать торрент
    Корона и дракон смотреть онлайн
    Cкачать фильм Корона и дракон бесплатно
    Корона и дракон скачать торрент в хорошем качестве
    Корона и дракон смотреть онлайн бесплатно в хорошем качестве


    Вы не можете начинать темы
    Вы не можете отвечать на сообщения
    Вы не можете редактировать свои сообщения
    Вы не можете удалять свои сообщения
    Вы не можете голосовать в опросах
    Вы не можете прикреплять файлы к сообщениям
    Вы можете скачивать файлы