2 сезон

iTunes

MVO

1

2 сезон

iTunes

iTunes

1 сезон

RePack

30

Ultimate

ВАЖНО

ИГРА 18+

pack

RePack

MK11
pack

Легкие деньги

RePack

jed

RePack

fifa19

RePack

RDR2

RePack

NEED FOR SPEED™ PAYBACK

4 сезон

9 сезон

Бесстыжие 9 сезон

Все сериалы

все сериалы на PB.wtf

RePack

FAR CRY 5

Anonymous, добрый день, мы не успеваем собрать деньги на оплату серверов за декабрь и январь, помогите нам пожалуйста в это трудное время. В качестве благодарности мы отключим Вам всю рекламу на сайте (укажите свой ник в строку Ваше имя)!

×
  
Magnet ссылка

Филомена / Philomena (Стивен Фрирз / Stephen Frears) [2013, Великобритания, США, Франция, Драма, Комедия, BDRip-AVC] Dub + Eng pb.wtf

Филомена через торрент pb.wtf

Размер: 2.18 GB | Добавлен: 6 лет 8 мес. назад | Торрент скачан:223 раза
Скачать  

27-04-2014 09:48 Филомена Скачать торрент  

Филомена
Philomena

«These two unlikely companions are on a journey to find her long lost son»




Страна: Великобритания, США, Франция
Студия: Baby Cow Productions Ltd., BBC Films, British Film Institute (BFI), Magnolia Mae Inc., Pathé
Жанр: драма, комедия
Год выпуска: 2013
Продолжительность: 01:37:44

Перевод: Профессиональный (полное дублирование) [Лицензия]
Cубтитры: Russian, English
Оригинальная аудиодорожка: English

Режиссер:
Стивен Фрирз / Stephen Frears

В ролях:
Джуди Денч, Стив Куган, Софи Кеннеди Кларк, Мэр Уиннингхэм, Барбара Джеффорд, Рут МакКейб, Питер Хэрман, Шон Махон, Анна Максвелл Мартин, Мишель Фэйрли

Описание:
Юная ирландка Филомена родила сына, будучи подростком, и её, как «падшую», отправили на «перевоспитание» в монастырь, а младенца отдали в усыновление в американскую семью. В монастыре Филомена подвергалась неисчислимым унижениям. Затем ей удалось вырваться оттуда, и она прожила достойную жизнь, но все эти годы пыталась безуспешно найти своего сына. Её историей заинтересовался отзывчивый человек Мартин Сиксмит — опытный журналист, занимающийся темой зловещей роли церкви в многочисленных сломанных судьбах…


Релиз:

Автор рипа: Stalker oK

Сэмпл: multi-up

Качество видео: BDRip-AVC [BDRemux]
Формат видео: MKV
Видео кодек: AVC
Аудио кодек: AC3
Видео: 2305 Кбит/сек, 1032*558 (16:9), в 24,000 кадр/сек, AVC
Аудио #1: Russian, 448 Кбит/сек, 48,0 КГц, 16 бит, 6 канала(ов), AC-3
Аудио #2: English, 448 Кбит/сек, 48,0 КГц, 16 бит, 6 канала(ов), AC-3
Общее
Уникальный идентификатор : 185810319466663338698332729145072022333 (0x8BC9C40D05A457D1BEDA4DDF5F57F33D)
Полное имя : D:\temp\филомена\Philomena.2013.BDRip-AVC.Dub.2.18...stalkerok.new-team.mkv
Формат : Matroska
Размер файла : 2,18 Гбайт
Продолжительность : 1 ч. 37 м.
Общий поток : 3193 Кбит/сек
Название фильма : Philomena (2013) (New-Team) (Rip by Stalker oK)
Дата кодирования : UTC 2014-04-12 19:18:49
Программа кодирования : mkvmerge v6.5.0 ('Isn't she lovely') built on Oct 20 2013 12:50:05
Библиотека кодирования : libebml v1.3.0 + libmatroska v1.4.1

Видео
Идентификатор : 1
Формат : AVC
Формат/Информация : Advanced Video Codec
Профиль формата : High@L4.1
Параметр CABAC формата : Да
Параметр ReFrames формата : 11 кадры
Идентификатор кодека : V_MPEG4/ISO/AVC
Продолжительность : 1 ч. 37 м.
Битрейт : 2305 Кбит/сек
Ширина : 1032 пикс.
Высота : 558 пикс.
Соотношение сторон : 16:9
Частота кадров : 24,000 кадр/сек
Цветовое пространство : YUV
Подвыборка цветности : 4:2:0
Битовая глубина : 8 бит
Тип развёртки : Прогрессивная
Бит/(Пиксели*Кадры) : 0.167
Размер потока : 1,52 Гбайт (70%)
Библиотека кодирования : x264 core 138 r2358 9e941d1
Настройки программы : cabac=1 / ref=11 / deblock=1:-3:-2 / analyse=0x3:0x133 / me=umh / subme=11 / psy=1 / psy_rd=1.00:0.05 / mixed_ref=1 / me_range=48 / chroma_me=1 / trellis=2 / 8x8dct=1 / cqm=0 / deadzone=21,11 / fast_pskip=0 / chroma_qp_offset=-3 / threads=6 / lookahead_threads=1 / sliced_threads=0 / nr=0 / decimate=0 / interlaced=0 / bluray_compat=0 / constrained_intra=0 / bframes=11 / b_pyramid=2 / b_adapt=2 / b_bias=0 / direct=3 / weightb=1 / open_gop=0 / weightp=2 / keyint=240 / keyint_min=24 / scenecut=40 / intra_refresh=0 / rc_lookahead=80 / rc=2pass / mbtree=1 / bitrate=2305 / ratetol=2.0 / qcomp=0.65 / qpmin=0 / qpmax=69 / qpstep=4 / cplxblur=20.0 / qblur=0.5 / vbv_maxrate=30000 / vbv_bufsize=35000 / nal_hrd=none / ip_ratio=1.40 / aq=2:1.00

Аудио #1
Идентификатор : 2
Формат : AC-3
Формат/Информация : Audio Coding 3
Расширение режима : CM (complete main)
Идентификатор кодека : A_AC3
Продолжительность : 1 ч. 37 м.
Вид битрейта : Постоянный
Битрейт : 448 Кбит/сек
Канал(ы) : 6 канала(ов)
Расположение каналов : Front: L C R, Side: L R, LFE
Частота : 48,0 КГц
Битовая глубина : 16 бит
Метод сжатия : С потерями
Размер потока : 313 Мбайт (14%)
Заголовок : AC3 5.1 ch @ 448 kbps Dub
Язык : Russian

Аудио #2
Идентификатор : 3
Формат : AC-3
Формат/Информация : Audio Coding 3
Расширение режима : CM (complete main)
Идентификатор кодека : A_AC3
Продолжительность : 1 ч. 37 м.
Вид битрейта : Постоянный
Битрейт : 448 Кбит/сек
Канал(ы) : 6 канала(ов)
Расположение каналов : Front: L C R, Side: L R, LFE
Частота : 48,0 КГц
Битовая глубина : 16 бит
Метод сжатия : С потерями
Размер потока : 313 Мбайт (14%)
Заголовок : AC3 5.1 ch @ 448 kbps
Язык : English

Текст #1
Идентификатор : 4
Формат : UTF-8
Идентификатор кодека : S_TEXT/UTF8
Идентификатор кодека/Информация : UTF-8 Plain Text
Язык : Russian

Текст #2
Идентификатор : 5
Формат : UTF-8
Идентификатор кодека : S_TEXT/UTF8
Идентификатор кодека/Информация : UTF-8 Plain Text
Язык : English
pb.wtf



Скачать Филомена через торрент http://i4.imageban.ru/out/2013/11/20/23afd37ba301cf29b16658cd2201c4ed.png Скачать фильм Филомена через торрент бесплантно в хорошем качестве Описание:Юная ирландка Филомена родила сына, будучи подростком, и её, как «падшую», отправили на «перевоспитание» в монастырь, а младенца ... 10 10 5
Info! Золотая раздача, скачанное не засчитывается.
Торрент: Зарегистрирован [2014-04-27 09:48] · скачан: 223 раз
Статус: √ проверено
Размер: 2.18 GB
Как cкачать? Как скачать Филомена через торрент | UTorrent

% Раздел Тема Автор DL S | L
Фильмы 2013 [DVDrip, WEB-DLRip, HDrip] [ 1.46 GB ] Филомена / Philomena [2013 BDRip-AVC] Dub + Eng sokol_ok Скачать
1 | 0

28-11-2019 20:33  

Отключить всю рекламу на сайте

27-04-2014 10:04 Филомена Скачать торрент  

sokol_ok,
http://puu.sh/8pnat.jpg пере залейте плиз на http://pic.kartinco.top/pb.wtf



27-04-2014 10:10 Филомена Скачать торрент  

Raven, у меня всё ок, все скрины отображаются нормально, странноpb.wtf



27-04-2014 12:17 Филомена Скачать торрент  

sokol_ok,
Ничего странного.Этот хостинг недавно вообще упал и восстановился только наполовину.Так что рекомендую залить на наш собственный, он намного надежней.pb.wtf



28-04-2014 14:55 Филомена Скачать торрент  

Raven, он не падал, дц почему то отключило все сервера и отказалось сотрудничать, предложив переехать в другой дц, кого там что не устроило и детали незнаю, но то что хостинг киданули это да.
https://piratbit.top/goo.php?url=https://piratbit.top/goo.php?url=http://imageban.ru/newspb.wtf



    Дорогой пользователь! Огромная просьба, поблагодарите релизера, оцените раздачу и оставьте свои комментарий, если Вы скачали Филомена через торрент бесплатно! Внесите свою лепту в развитие PiratBit!
    Комментировать посты могут только пользователи прошедшие не сложную регистрацию
    Показать сообщения:    

    Филомена через торрент
    Скачать бесплатно Филомена
    Филомена скачать торрент
    Филомена смотреть онлайн
    Cкачать фильм Филомена бесплатно
    Филомена скачать торрент в хорошем качестве
    Филомена смотреть онлайн бесплатно в хорошем качестве


    Вы не можете начинать темы
    Вы не можете отвечать на сообщения
    Вы не можете редактировать свои сообщения
    Вы не можете удалять свои сообщения
    Вы не можете голосовать в опросах
    Вы не можете прикреплять файлы к сообщениям
    Вы можете скачивать файлы