Ссылка на приватное зеркало нашего сайта всего за 1$. Внимание количество ограничено!!!

2 сезон

iTunes

1 сезон

1

iTunes

iTunes

iTunes

1 сезон

RePack

30

ИГРА 18+

pack

ВАЖНО

!!Акция!!

Alien_RageХит недели

RePack

MK11
pack

Забери бонус

RePack

jed

!!Акция!!

Alien_Rage

RePack

fifa19

RePack

Assassins Creed: Odyssey

RePack

NEED FOR SPEED™ PAYBACK

4 сезон

9 сезон

Бесстыжие 9 сезон

Все сериалы

все сериалы на PB.wtf

RePack

FAR CRY 5
  

Волчья яма 2 / Wolf Creek 2 (Грег МакЛин / Greg McLean) [2013, Австралия, ужасы, триллер, WEB-DLRip,Любительский (двухголосый)[den904, DeadSno] pb.wtf

Волчья яма 2 через торрент pb.wtf

Размер: 1.47 GB | Добавлен: 6 лет 6 мес. назад | Торрент скачан:371 раз
Скачать  

27-04-2014 12:43 Волчья яма 2 Скачать торрент  

Волчья яма 2 / Wolf Creek 2

«Mick's Back With a Few Days to Kill»
  • Год выпуска: 2013
  • Страна:Австралия
  • Жанр:ужасы, триллер
  • Продолжительность:01:46:15
  • Перевод:Любительский (двухголосый)[den904, DeadSno]
  • Субтитры: Нет
  • Режиссер: Грег МакЛин / Greg McLean

  • В ролях:

    Джон Джэррэт (Mick Taylor), Райан Корр (Paul Hammersmith), Шеннон Эшлин (Katarina Schmidt), Филлипп Клаус (Rutger Enqvist), Герард Кеннеди (Jack, слухи), Энни Байрон (Lil, слухи), Шэйн Коннор (Senior Sergeant Gary Bulmer Jnr), Бен Джеррард (Cop #2, слухи), Хлоя Борхэм (Lucille), Райан Кларк (English Backpacker), Jordan Cowan (Young Woman), Кейт Энгелфилд (Catherine)

    • Описание:
      Туристы Рутгер, Катарина и Пауль приезжают к знаменитой австралийской достопримечательности, кратеру потухшего вулкана Волчья Яма. Их мечты о приключениях вскоре обращаются в чудовищную реальность, когда они сталкиваются с печально известным местным жителем, садистом-убийцей Миком Тэйлором...

    Мировая премьера:30 августа 2013

    • Качество: WEB-DLRip
    • Формат: AVI
    • Видео кодек: XviD
    • Аудио кодек:AC3
    • Видео: XviD, 720x304 (2.35:1), 1576 kbps, 23,976 fps, 0,300 bpp
    • Аудио №1: AC3 / 2.0 / 48 kHz / 192 kbps / 16 bit-Russian
      Аудио №2: AC3 / 2.0 / 48 kHz / 192 kbps / 16 bit / English


    Код:

    General
    Complete name                            : D:\Торенты\Wolf.Creek.2.2013.L2.WEB-DLRip.1.46GB.avi
    Format                                   : AVI
    Format/Info                              : Audio Video Interleave
    File size                                : 1.47 GiB
    Duration                                 : 1h 46mn
    Overall bit rate                         : 1 975 Kbps
    Writing application                      : VirtualDubMod 1.5.10.3 | www.virtualdub-fr.org || (build 2550/release)
    Writing library                          : VirtualDubMod build 2550/release

    Video
    ID                                       : 0
    Format                                   : MPEG-4 Visual
    Format profile                           : Advanced Simple@L5
    Format settings, BVOP                    : 1
    Format settings, QPel                    : No
    Format settings, GMC                     : No warppoints
    Format settings, Matrix                  : Custom
    Codec ID                                 : XVID
    Codec ID/Hint                            : XviD
    Duration                                 : 1h 46mn
    Bit rate                                 : 1 577 Kbps
    Width                                    : 720 pixels
    Height                                   : 304 pixels
    Display aspect ratio                     : 2.35:1
    Frame rate                               : 23.976 fps
    Color space                              : YUV
    Chroma subsampling                       : 4:2:0
    Bit depth                                : 8 bits
    Scan type                                : Progressive
    Compression mode                         : Lossy
    Bits/(Pixel*Frame)                       : 0.300
    Stream size                              : 1.17 GiB (80%)
    Writing library                          : XviD 73

    Audio #1
    ID                                       : 1
    Format                                   : AC-3
    Format/Info                              : Audio Coding 3
    Format profile                           : Dolby Digital
    Mode extension                           : CM (complete main)
    Codec ID                                 : 2000
    Duration                                 : 1h 46mn
    Bit rate mode                            : Constant
    Bit rate                                 : 192 Kbps
    Channel(s)                               : 2 channels
    Channel positions                        : Front: L R
    Sampling rate                            : 48.0 KHz
    Bit depth                                : 16 bits
    Compression mode                         : Lossy
    Stream size                              : 146 MiB (10%)
    Alignment                                : Split accross interleaves
    Interleave, duration                     : 42 ms (1.00 video frame)
    Interleave, preload duration             : 500 ms

    Audio #2
    ID                                       : 2
    Format                                   : AC-3
    Format/Info                              : Audio Coding 3
    Mode extension                           : CM (complete main)
    Codec ID                                 : 2000
    Duration                                 : 1h 46mn
    Bit rate mode                            : Constant
    Bit rate                                 : 192 Kbps
    Channel(s)                               : 2 channels
    Channel positions                        : Front: L R
    Sampling rate                            : 48.0 KHz
    Bit depth                                : 16 bits
    Compression mode                         : Lossy
    Stream size                              : 146 MiB (10%)
    Alignment                                : Split accross interleaves
    Interleave, duration                     : 42 ms (1.00 video frame)
    Interleave, preload duration             : 500 ms

    Скриншоты:

    Каталог Новинок (Фильмы-трейлеры, Игры, Сериалы, Мультфильмы)

    © Оформление by Raven
    pb.wtf



  • Скачать Волчья яма 2 через торрент http://pic.kartinco.top/images/6/azmbs.jpg Скачать фильм Волчья яма 2 через торрент бесплантно в хорошем качестве Описание:Туристы Рутгер, Катарина и Пауль приезжают к знаменитой австралийской достопримечательности, кратеру потухшего вулкана Волчья Яма. ... 9.9 10 8
    Info! Золотая раздача, скачанное не засчитывается.
    Торрент: Зарегистрирован [2014-04-27 12:43] · скачан: 371 раз
    Статус: T временная
    Размер: 1.47 GB
    Как cкачать? Как скачать Волчья яма 2 через торрент | qTorrent

    % Раздел Тема Автор DL S | L
    Зарубежные сериалы [ 14.55 GB ] Волчья яма / Wolf Creek / Сезон: 2 / Серии: 1-6 из 6 [2017 WEB-DL 1080p] DVO [ViruseProject] bober100 Скачать
    1 | 0
    Зарубежные сериалы [ 10.89 GB ] Волчья яма / Wolf Creek / Сезон: 2 / Серии 1-6 из 6 [2016 Австралия WEBRip 720p] MVO [BaibaKo] GEKADOL Скачать
    1 | 0
    Зарубежные сериалы [ 3.94 GB ] Волчья яма / Wolf Creek / Сезон: 2 / Серии 1-6 из 6 [2017 Австралия WEBRip] MVO [BaibaKo] GEKADOL Скачать
    1 | 0
    T Фильмы 2013 (Звук TS, Cam, VO, DVO) [ 2.03 GB ] Волчья яма 2 / Wolf Creek 2 [2013 HDRip Любительский одноголосый] coc900 Скачать
    1 | 0

    28-11-2019 20:33  

    Отключить всю рекламу на сайте

    27-04-2014 12:44 Волчья яма 2 Скачать торрент  

    сэмпл жесть)pb.wtf



    27-04-2014 13:58 Волчья яма 2 Скачать торрент  

    Raven писал(а):

    сэмпл жесть)

    Первый фильм тоже жесть!!! :this:pb.wtf



    27-04-2014 16:08 Волчья яма 2 Скачать торрент  

    Спасибо, первая часть порадовала, надеюсь, и эта не разочарует... pb.wtf



    01-06-2014 17:38 Волчья яма 2 Скачать торрент  

    лицензия вобще будетpb.wtf



    08-12-2014 22:49 Волчья яма 2 Скачать торрент  

    Ворон писал(а):

    сэмпл жесть)

    Пойдет фильм можно смотретьpb.wtf



      Дорогой пользователь! Огромная просьба, поблагодарите релизера, оцените раздачу и оставьте свои комментарий, если Вы скачали Волчья яма 2 через торрент бесплатно! Внесите свою лепту в развитие PiratBit!
      Комментировать посты могут только пользователи прошедшие не сложную регистрацию
      Показать сообщения:    

      Волчья яма 2 через торрент
      Скачать бесплатно Волчья яма 2
      Волчья яма 2 скачать торрент
      Волчья яма 2 смотреть онлайн
      Cкачать фильм Волчья яма 2 бесплатно
      Волчья яма 2 скачать торрент в хорошем качестве
      Волчья яма 2 смотреть онлайн бесплатно в хорошем качестве


      Вы не можете начинать темы
      Вы не можете отвечать на сообщения
      Вы не можете редактировать свои сообщения
      Вы не можете удалять свои сообщения
      Вы не можете голосовать в опросах
      Вы не можете прикреплять файлы к сообщениям
      Вы можете скачивать файлы