Ссылка на приватное зеркало нашего сайта всего за 1$. Внимание количество ограничено!!!

2 сезон

iTunes

1 сезон

1

iTunes

iTunes

iTunes

1 сезон

RePack

30

ИГРА 18+

pack

ВАЖНО

!!Акция!!

Alien_RageХит недели

RePack

MK11
pack

Забери бонус

RePack

jed

!!Акция!!

Alien_Rage

RePack

fifa19

RePack

Assassins Creed: Odyssey

RePack

NEED FOR SPEED™ PAYBACK

4 сезон

9 сезон

Бесстыжие 9 сезон

Все сериалы

все сериалы на PB.wtf

RePack

FAR CRY 5
  

Босиком по слизнякам / Pieds nus sur les limaces (Фабьенн Берто / Fabienne Berthaud) [2010, Франция, драма, HDRip,Профессиональный (многоголосый, закадровый) pb.wtf

Босиком по слизнякам через торрент pb.wtf

Размер: 1.46 GB | Добавлен: 6 лет 5 мес. назад | Торрент скачан:41 раз
Скачать  

28-04-2014 16:56 Босиком по слизнякам Скачать торрент  

Босиком по слизнякам / Pieds nus sur les limaces
Год выпуска: 2010
Страна: Франция
Жанр: Драма, арт-хаус, авторское кино, экранизация
Продолжительность: 01:49:20
Перевод: Профессиональный (многоголосый, закадровый)
Субтитры: Нет

Режиссер: Фабьенн Берто / Fabienne Berthaud
В ролях: Дайан Крюгер (Clara), Людивин Санье (Lily Dreyer), Дени Меноше (Pierre), Бриджитт Катийон (Odile - la mère de Pierre), Жак Списсер (Paul - le père de Pierre), Анн Бенуа (Mireille), Жан-Пьер Мартен (Jonas), Гаэтан Гайе (Dan), Реда Катеб (Seb), Коме Левин (Paulo), Артур Орсье (Guillaume), Матиас Меллул (Laurent)

Описание: После внезапной смерти матери Клара вынуждена заботиться о младшей сестре Лилу, чья невероятная чувствительность делает ее уязвимой к внешнему миру и не позволяет быть самостоятельной.

kinopoisk.ru: 7.067 (258)
imdb.com: 6.30 (762)

Качество: HDRip
Формат: AVI
Видео кодек: XviD
Аудио кодек: AC3
Видео: XviD, 720x384 (1.875), 1708 kbps, 24 fps, 0,258 bpp
Аудио: AC3 / 2.0 / 48 kHz / 192 kbps / 16 bit

General
Complete name : E:\закачки\Golymi.nogami.po.sliznirkam.2010.P.HDRip.avi
Format : AVI
Format/Info : Audio Video Interleave
File size : 1.46 GiB
Duration : 1h 49mn
Overall bit rate : 1 910 Kbps
Writing application : VirtualDubMod 1.5.10.2 (build 2540/release)
Writing library : VirtualDubMod build 2540/release

Video
ID : 0
Format : MPEG-4 Visual
Format profile : Advanced Simple@L5
Format settings, BVOP : 2
Format settings, QPel : No
Format settings, GMC : No warppoints
Format settings, Matrix : Default (MPEG)
Codec ID : XVID
Codec ID/Hint : XviD
Duration : 1h 49mn
Bit rate : 1 709 Kbps
Width : 720 pixels
Height : 384 pixels
Display aspect ratio : 1.875
Frame rate : 24.000 fps
Color space : YUV
Chroma subsampling : 4:2:0
Bit depth : 8 bits
Scan type : Progressive
Compression mode : Lossy
Bits/(Pixel*Frame) : 0.258
Stream size : 1.31 GiB (89%)
Writing library : XviD 1.2.1 (UTC 2008-12-04)

Audio
ID : 1
Format : AC-3
Format/Info : Audio Coding 3
Mode extension : CM (complete main)
Codec ID : 2000
Duration : 1h 49mn
Bit rate mode : Constant
Bit rate : 192 Kbps
Channel(s) : 2 channels
Channel positions : Front: L R
Sampling rate : 48.0 KHz
Bit depth : 16 bits
Compression mode : Lossy
Stream size : 150 MiB (10%)
Alignment : Split accross interleaves
Interleave, duration : 42 ms (1.00 video frame)
Interleave, preload duration : 500 ms
pb.wtf



Скачать Босиком по слизнякам через торрент http://s015.radikal.ru/i332/1404/8a/38e9074eda37.jpg Скачать фильм Босиком по слизнякам через торрент бесплантно в хорошем качестве Описание: После внезапной смерти матери Клара вынуждена заботиться о младшей сестре Лилу, чья невероятная чувствительность делает ее ... 10 10 2
Торрент: Зарегистрирован [2014-04-28 16:56] · скачан: 41 раз
Статус: √ проверено
Размер: 1.46 GB
Как cкачать? Как скачать Босиком по слизнякам через торрент | qTorrent

28-11-2019 20:33  

Отключить всю рекламу на сайте

    Дорогой пользователь! Огромная просьба, поблагодарите релизера, оцените раздачу и оставьте свои комментарий, если Вы скачали Босиком по слизнякам через торрент бесплатно! Внесите свою лепту в развитие PiratBit!
    Комментировать посты могут только пользователи прошедшие не сложную регистрацию
    Показать сообщения:    

    Босиком по слизнякам через торрент
    Скачать бесплатно Босиком по слизнякам
    Босиком по слизнякам скачать торрент
    Босиком по слизнякам смотреть онлайн
    Cкачать фильм Босиком по слизнякам бесплатно
    Босиком по слизнякам скачать торрент в хорошем качестве
    Босиком по слизнякам смотреть онлайн бесплатно в хорошем качестве


    Вы не можете начинать темы
    Вы не можете отвечать на сообщения
    Вы не можете редактировать свои сообщения
    Вы не можете удалять свои сообщения
    Вы не можете голосовать в опросах
    Вы не можете прикреплять файлы к сообщениям
    Вы можете скачивать файлы