Ссылка на приватное зеркало нашего сайта всего за 1$. Внимание количество ограничено!!!

2 сезон

iTunes

1 сезон

1

2 сезон

2 сезон

iTunes

1 сезон

RePack

30

Ultimate

ВАЖНО

ИГРА 18+

pack

RePack

MK11
pack

Забери бонус

RePack

jed

!!Акция!!

Alien_Rage

RePack

fifa19

RePack

Assassins Creed: Odyssey

RePack

NEED FOR SPEED™ PAYBACK

4 сезон

9 сезон

Бесстыжие 9 сезон

Все сериалы

все сериалы на PB.wtf

RePack

FAR CRY 5
  

Чистильщики / Cleaners / Cезон: 1 / Серии: 1-6 (6) (Пол Лейден) [2013 г., Боевик, WEBRip] MVO Flux-Team pb.wtf

Чистильщики через торрент pb.wtf

Размер: 1.5 GB | Добавлен: 6 лет 7 мес. назад | Торрент скачан:124 раза
Скачать  

28-04-2014 18:07 Чистильщики Скачать торрент  

Чистильщики / Cleaners Год выпуска: 2013
Страна: США Sony Pictures Television, Full Clip Productions
Жанр: Боевик
Продолжительность: 6 х ~ 00:22:00
Перевод: Любительский многоголосый Flux-Team
Режиссер: Пол Лейден
Продюссер: Энн Клементс, Пол Лейден, Майкл Шварц
Сценарий: Пол Лейден

Премьера в мире: 3 октября 2013


В ролях: Эмили Осмент, Эммануэль Шрики, Дэвид Аркетт, Джина Гершон, Клифтон Коллинз мл., Робин Томас, Мисси Пайл, Джейкоб Сальвати

Описание: Рокси и Вероника, две красивые молодые девушки по поручению своего босса становятся командой высококвалифицированных наемных убийц. Дела идут плохо, когда они находят 8-летнего мальчика в багажнике своей машины. Они сразу становятся целью клиента своего босса, ФБР, и даже их собственный босс высылает команду убийц для ликвидации девушек, чтобы вернуть ценного ребенка.
Качество: WEBRip
Формат: AVI
Видео кодек: XviD
Аудио кодек: MP3
Видео: Xvid 720x400, 23.98fps, 1 408 Kbps
Аудио: MPEG Audio Layer 3, 44100Hz, stereo, 192kbps
Релиз от: LiraA





General
Complete name : I:\01 03 2012\Cleaners.Flux-Team\Cleaners.s01e01.rus.Flux-Team.avi
Format : AVI
Format/Info : Audio Video Interleave
File size : 253 MiB
Duration : 21mn 58s
Overall bit rate : 1 609 Kbps
Writing application : VirtualDubMod 1.5.10.3 (build 2550/release)
Writing library : VirtualDubMod build 2550/release

Video
ID : 0
Format : MPEG-4 Visual
Format profile : Advanced Simple@L5
Format settings, BVOP : 2
Format settings, QPel : No
Format settings, GMC : No warppoints
Format settings, Matrix : Default (MPEG)
Codec ID : XVID
Codec ID/Hint : XviD
Duration : 21mn 58s
Bit rate : 1 408 Kbps
Width : 720 pixels
Height : 400 pixels
Display aspect ratio : 16:9
Frame rate : 23.976 fps
Color space : YUV
Chroma subsampling : 4:2:0
Bit depth : 8 bits
Scan type : Progressive
Compression mode : Lossy
Bits/(Pixel*Frame) : 0.204
Stream size : 221 MiB (87%)
Writing library : XviD 1.2.1 (UTC 2008-12-04)

Audio
ID : 1
Format : MPEG Audio
Format version : Version 1
Format profile : Layer 3
Codec ID : 55
Codec ID/Hint : MP3
Duration : 21mn 58s
Bit rate mode : Constant
Bit rate : 192 Kbps
Channel(s) : 2 channels
Sampling rate : 44.1 KHz
Compression mode : Lossy
Stream size : 30.2 MiB (12%)
Alignment : Split accross interleaves
Interleave, duration : 42 ms (1.00 video frame)
Interleave, preload duration : 500 ms

pb.wtf



Скачать Чистильщики через торрент http://pic.kartinco.top/images/6/yhd1t.jpg Скачать фильм Чистильщики через торрент бесплантно в хорошем качестве Описание: Рокси и Вероника, две красивые молодые девушки по поручению своего босса становятся командой высококвалифицированных наемных ... 9.9 10 11
Торрент: Зарегистрирован [2014-04-28 18:07] · скачан: 124 раз
Статус: √ проверено
Размер: 1.5 GB
Как cкачать? Как скачать Чистильщики через торрент | qTorrent



Последний раз редактировалось: lug30 (2014-04-28 18:24), всего редактировалось 1 раз

28-11-2019 20:33  

Отключить всю рекламу на сайте

28-04-2014 18:21 Чистильщики Скачать торрент  

Цитата:

Качество: WEB-DLRip

WEBRip в данном случаеpb.wtf



28-04-2014 18:33 Чистильщики Скачать торрент  

Дополнительная информация:
Сериал снимался специально и эксклюзивно для сайта-кинотеатра crackle и доступного лишь для Северной Америки, по телевизору его никогда не показывали, на носителях не издавали, только электронная версия ...pb.wtf



28-04-2014 19:35 Чистильщики Скачать торрент  

чистильщики или чистильщицы???pb.wtf



28-04-2014 19:58 Чистильщики Скачать торрент  

по-барабануpb.wtf



    Дорогой пользователь! Огромная просьба, поблагодарите релизера, оцените раздачу и оставьте свои комментарий, если Вы скачали Чистильщики через торрент бесплатно! Внесите свою лепту в развитие PiratBit!
    Комментировать посты могут только пользователи прошедшие не сложную регистрацию
    Показать сообщения:    

    Чистильщики через торрент
    Скачать бесплатно Чистильщики
    Чистильщики скачать торрент
    Чистильщики смотреть онлайн
    Cкачать фильм Чистильщики бесплатно
    Чистильщики скачать торрент в хорошем качестве
    Чистильщики смотреть онлайн бесплатно в хорошем качестве


    Вы не можете начинать темы
    Вы не можете отвечать на сообщения
    Вы не можете редактировать свои сообщения
    Вы не можете удалять свои сообщения
    Вы не можете голосовать в опросах
    Вы не можете прикреплять файлы к сообщениям
    Вы можете скачивать файлы