2 сезон

iTunes

MVO

1

2 сезон

iTunes

iTunes

1 сезон

RePack

30

Ultimate

ВАЖНО

ИГРА 18+

pack

RePack

MK11
pack

Легкие деньги

RePack

jed

RePack

fifa19

RePack

RDR2

RePack

NEED FOR SPEED™ PAYBACK

4 сезон

9 сезон

Бесстыжие 9 сезон

Все сериалы

все сериалы на PB.wtf

RePack

FAR CRY 5

Anonymous, доброй ночи, мы не успеваем собрать деньги на оплату серверов за декабрь и январь, помогите нам пожалуйста в это трудное время. В качестве благодарности мы отключим Вам всю рекламу на сайте (укажите свой ник в строку Ваше имя)!

×
  
Magnet ссылка

Несносный дед / Jackass Presents: Bad Grandpa (Джефф Треймейн / Jeff Tremaine) [2013 г., Комедия, BDRip-AVC] [Театральная версия] DUB Лицензия pb.wtf

Несносный дед через торрент pb.wtf

Размер: 2.92 GB | Добавлен: 6 лет 8 мес. назад | Торрент скачан:204 раза
Скачать  

29-04-2014 07:56 Несносный дед Скачать торрент  

Несносный дед / Jackass Presents: Bad Grandpa
Год выпуска: 2013
Страна: США / Dickhouse Productions, MTV Films
Жанр: Комедия
Продолжительность: 01:31:54
Перевод: Дубляж [BD EUR]
Субтитры: Английские

Режиссер: Джефф Треймейн / Jeff Tremaine



В ролях: Джонни Ноксвил, Джексон Николл, Грег Харрис, Джорджина Кэйтс, Камбер Хейлик, Джилл Килл, Мэдисон Дэвис, Джордж Фонан, Грэси Мерседес, Мэрилинн Эллейн

Описание: 86-летний старикан по имени Ирвинг Зисман путешествует по Америке с необычным компаньоном — восьмилетним «внуком» Билли. По дороге заводной дедушка знакомит впечатлительного Билли с людьми, местами и ситуациями, которые вряд ли укладываются в рамки привычных представлений о воспитании. Парочка столкнется со стриптизерами, разъяренными участниками помпезного детского конкурса красоты и их не менее злыми мамашами, скорбящими посетителями панихиды, завсегдатаями бара для байкеров и другими ничего не подозревающими гражданами США.

Качество: BDRip-AVC
Формат: MKV
Видео кодек: H.264
Аудио кодек: AC3
Видео: 1024x576 (2,40:1), 23.976 fps, 3644 Кbps, 0.258 bit/pixel
Аудио#1: 48 kHz, AC3 Dolby Digital, 3/2 (L,C,R,l,r) + LFE ch, 448.00 kbps | RUS
Аудио#2: 48 kHz, AC3 Dolby Digital, 3/2 (L,C,R,l,r) + LFE ch, 448.00 kbps | ENG

Релиз группы:
Автор рипа: potroks

Общее
Уникальный идентификатор : 204151572868592345982336689377106032536 (0x999629A934E24830B233ED1571457798)
Полное имя : Chudaki.Nesnosnyi.Ded.2013.DUAL.BDRip.x264.-HELLYWOOD.mkv
Формат : Matroska
Версия формата : Version 4 / Version 2
Размер файла : 2,92 Гбайт
Продолжительность : 1 ч. 31 м.
Общий поток : 4542 Кбит/сек
Название фильма : HELLYWOOD - rip by potroks
Дата кодирования : UTC 2014-03-07 05:21:11
Программа кодирования : mkvmerge v5.9.0 ('On The Loose') built on Dec 15 2012 16:39:58
Библиотека кодирования : libebml v1.3.0 + libmatroska v1.4.0

Видео
Идентификатор : 1
Формат : AVC
Формат/Информация : Advanced Video Codec
Профиль формата : High@L4.1
Параметр CABAC формата : Да
Параметр ReFrames формата : 13 кадров
Идентификатор кодека : V_MPEG4/ISO/AVC
Продолжительность : 1 ч. 31 м.
Битрейт : 3644 Кбит/сек
Ширина : 1024 пикселя
Высота : 576 пикселей
Соотношение сторон : 16:9
Режим частоты кадров : Постоянный
Частота кадров : 23,976 кадра/сек
Цветовое пространство : YUV
Субдискретизация насыщенности : 4:2:0
Битовая глубина : 8 бит
Тип развёртки : Прогрессивная
Бит/(Пиксели*Кадры) : 0.258
Размер потока : 2,28 Гбайт (78%)
Заголовок : Jackass Presents: Bad Grandpa
Библиотека кодирования : x264 core 130 r2273 b3065e6
Настройки программы : cabac=1 / ref=13 / deblock=1:-3:-3 / analyse=0x3:0x133 / me=umh / subme=11 / psy=1 / psy_rd=1.00:0.00 / mixed_ref=1 / me_range=32 / chroma_me=1 / trellis=2 / 8x8dct=1 / cqm=0 / deadzone=21,11 / fast_pskip=0 / chroma_qp_offset=-2 / threads=6 / lookahead_threads=8 / sliced_threads=0 / nr=0 / decimate=0 / interlaced=0 / bluray_compat=0 / constrained_intra=0 / bframes=14 / b_pyramid=2 / b_adapt=2 / b_bias=0 / direct=3 / weightb=1 / open_gop=0 / weightp=2 / keyint=250 / keyint_min=23 / scenecut=40 / intra_refresh=0 / rc_lookahead=60 / rc=2pass / mbtree=0 / bitrate=3644 / ratetol=1.0 / qcomp=0.70 / qpmin=0 / qpmax=69 / qpstep=4 / cplxblur=20.0 / qblur=0.5 / vbv_maxrate=20000 / vbv_bufsize=25000 / nal_hrd=none / ip_ratio=1.30 / pb_ratio=1.25 / aq=1:0.80
Язык : English
Default : Да
Forced : Нет

Аудио #1
Идентификатор : 2
Формат : AC-3
Формат/Информация : Audio Coding 3
Расширение режима : CM (complete main)
Параметр Endianness формата : Big
Идентификатор кодека : A_AC3
Продолжительность : 1 ч. 31 м.
Вид битрейта : Постоянный
Битрейт : 448 Кбит/сек
Каналы : 6 каналов
Расположение каналов : Front: L C R, Side: L R, LFE
Частота : 48,0 КГц
Битовая глубина : 16 бит
Метод сжатия : С потерями
Размер потока : 294 Мбайт (10%)
Заголовок : Dub | DD 5.1 @ 448 kbps
Язык : Russian
Default : Да
Forced : Да

Аудио #2
Идентификатор : 3
Формат : AC-3
Формат/Информация : Audio Coding 3
Расширение режима : CM (complete main)
Параметр Endianness формата : Big
Идентификатор кодека : A_AC3
Продолжительность : 1 ч. 31 м.
Вид битрейта : Постоянный
Битрейт : 448 Кбит/сек
Каналы : 6 каналов
Расположение каналов : Front: L C R, Side: L R, LFE
Частота : 48,0 КГц
Битовая глубина : 16 бит
Метод сжатия : С потерями
Размер потока : 294 Мбайт (10%)
Заголовок : Original | DD 5.1 @ 448 kbps
Язык : English
Default : Нет
Forced : Нет

Текст
Идентификатор : 4
Формат : UTF-8
Идентификатор кодека : S_TEXT/UTF8
Идентификатор кодека/Информация : UTF-8 Plain Text
Язык : English
Default : Нет
Forced : Нет

Меню
00:00:00.000 : :Chapter 01
00:06:47.824 : :Chapter 02
00:14:50.014 : :Chapter 03
00:20:26.391 : :Chapter 04
00:26:02.769 : :Chapter 05
00:34:37.033 : :Chapter 06
00:41:33.866 : :Chapter 07
00:49:09.571 : :Chapter 08
00:55:55.602 : :Chapter 09
01:02:14.063 : :Chapter 10
01:08:58.592 : :Chapter 11
01:16:21.785 : :Chapter 12
01:23:13.154 : :Chapter 13

pb.wtf



Скачать Несносный дед через торрент http://pic.kartinco.top/images/6/ulfu2.jpg Скачать фильм Несносный дед через торрент бесплантно в хорошем качестве Описание: 86-летний старикан по имени Ирвинг Зисман путешествует по Америке с необычным компаньоном — восьмилетним «внуком» Билли. По ... 8.8 10 6
Торрент: Зарегистрирован [2014-04-29 07:56] · скачан: 204 раз
Статус: √ проверено
Размер: 2.92 GB
Как cкачать? Как скачать Несносный дед через торрент | UTorrent

% Раздел Тема Автор DL S | L
Фильмы 2013 [DVDrip, WEB-DLRip, HDrip] [ 2.91 GB ] Несносный дед / Jackass Presents: Bad Grandpa [2013 BDRip-AVC] [Расширенная версия] DUB potroks Скачать
1 | 0

28-11-2019 20:33  

Отключить всю рекламу на сайте

29-04-2014 08:10 Несносный дед Скачать торрент  

мда, ниже поясной юмор, вырвался на экраны.pb.wtf



29-04-2014 08:33 Несносный дед Скачать торрент  

местами прет, и не по-детски, а по-стариковски.
хороший фильма-синема yespb.wtf



29-04-2014 09:10 Несносный дед Скачать торрент  

чё реально крутой фильм ???pb.wtf



29-04-2014 11:49 Несносный дед Скачать торрент  

Ti писал(а):

чё реально крутой фильм ???

Пойдет!pb.wtf



29-04-2014 14:17 Несносный дед Скачать торрент  

Ti писал(а):

чё реально крутой фильм ???

я дико хохотал когда он мальчика вывел на сцену и тот притворяясь девчонкой начал танцевать стриптиз... Такой троллинг на детьми я еще не видел. Злые у него шутки конечно, но от этого не менее смешные. А так 6 из 10 примерно оценка. На разок пойдет.pb.wtf



13-05-2014 21:46 Несносный дед Скачать торрент  

Все комменты выше верны. Дикие, тупые приколы, но реакция на эти приколы простых людей настоящая, оттого забавная, пацан очень прикольный, в общем фильм больше да, чем нет. В этом фильме хорошо показаны простые американцы, толстяков много.pb.wtf



    Дорогой пользователь! Огромная просьба, поблагодарите релизера, оцените раздачу и оставьте свои комментарий, если Вы скачали Несносный дед через торрент бесплатно! Внесите свою лепту в развитие PiratBit!
    Комментировать посты могут только пользователи прошедшие не сложную регистрацию
    Показать сообщения:    

    Несносный дед через торрент
    Скачать бесплатно Несносный дед
    Несносный дед скачать торрент
    Несносный дед смотреть онлайн
    Cкачать фильм Несносный дед бесплатно
    Несносный дед скачать торрент в хорошем качестве
    Несносный дед смотреть онлайн бесплатно в хорошем качестве


    Вы не можете начинать темы
    Вы не можете отвечать на сообщения
    Вы не можете редактировать свои сообщения
    Вы не можете удалять свои сообщения
    Вы не можете голосовать в опросах
    Вы не можете прикреплять файлы к сообщениям
    Вы можете скачивать файлы