Ссылка на приватное зеркало всего за 1$. Внимание количество ограничено!!!

iTunes

iTunes

iTunes

1

iTunes

iTunes

iTunes

iTunes

iTunes

30
pack

$ от Little Big

ВАЖНО

!!Акция!!

Alien_RageХит недели

RePack

Resident Evil 21

ИГРА 18+

pack

RePack

jed

!!Акция!!

Alien_Rage

RePack

fifa19

RePack

Assassins Creed: Odyssey

RePack

NEED FOR SPEED™ PAYBACK

4 сезон

9 сезон

Бесстыжие 9 сезон

Все сериалы

все сериалы на PB.wtf

RePack

FAR CRY 5
  

Джо / Joe (Дэвид Гордон Грин / David Gordon Green) [2013, США, драма, криминал, WEB-DL 720p,Любительский (двухголосый) [Пиратская студия] pb.wtf

Джо через торрент pb.wtf

Размер: 3.75 GB | Добавлен: 6 лет 2 мес. назад | Торрент скачан:245 раз
Скачать  

29-04-2014 16:01 Джо Скачать торрент  

Джо / Joe


Год выпуска: 2013
Страна:США
Жанр:драма, криминал
Продолжительность:01:57:45
Перевод:Любительский (двухголосый) [Пиратская студия]
Субтитры: Нет
Режиссер: Дэвид Гордон Грин / David Gordon Green

  • В ролях:

    Николас Кейдж (Joe), Тай Шеридан (Gary), Гари Поултер (Wade a.k.a. G-Daawg), Ронни Джин Блевинс (Willie-Russell), Адриэн Мишлер (Connie), Брайан Мейс (Junior), Адж Уилсон МакФол (Earl), Сью Рок (Merle), Хезер Кафка (Lacy), Бренда Исаак Бут (Mother), Анна Нимчк (Dorothy), Эльберт Хилл III (Shorty)

  • Описание:
    В сонном городке на Миссисипи встретилось два одиноких человека. Юный Гарри поставил крест на своем будущем, не зная как отвязаться от отца-алкоголика, бывший бандит Джо не желает вспоминать о прошлом. Неожиданно для самих себя они становятся друзьями.

  • Мировая премьера:30 августа 2013

      Качество: WEB-DL 720p
      Формат: MKV
      Видео кодек: AVC
      Аудио кодек:AC3
      Видео: AVC, 1280x540 (2.35:1), 3704 kbps, 23,976 fps, 0,224 bpp
      Аудио №1: русский / AC3 / 5.1 / 48 kHz / 384 kbps / 16 bit ||
      Аудио №2: английский / AC3 / 5.1 / 48 kHz / 384 kbps / 16 bit


    Код:

    General
    Unique ID                                : 209618761326285874013919084282648466433 (0x9DB31ADCFA840EA0B18D1C9A953C1401)
    Complete name                            : D:\Торенты\Joe.2013.WED-DL.720p.mkv
    Format                                   : Matroska
    Format version                           : Version 4 / Version 2
    File size                                : 3.75 GiB
    Duration                                 : 1h 57mn
    Overall bit rate                         : 4 564 Kbps
    Movie name                               : Release Group CINEMANIA
    Encoded date                             : UTC 2014-04-28 17:56:40
    Writing application                      : mkvmerge v6.9.1 ('Blue Panther') 64bit built on Apr 18 2014 18:23:38
    Writing library                          : libebml v1.3.0 + libmatroska v1.4.1

    Video
    ID                                       : 1
    Format                                   : AVC
    Format/Info                              : Advanced Video Codec
    Format profile                           : Main@L3.1
    Format settings, CABAC                   : No
    Format settings, ReFrames                : 2 frames
    Codec ID                                 : V_MPEG4/ISO/AVC
    Duration                                 : 1h 57mn
    Bit rate                                 : 3 705 Kbps
    Width                                    : 1 280 pixels
    Height                                   : 540 pixels
    Display aspect ratio                     : 2.35:1
    Frame rate                               : 23.976 fps
    Color space                              : YUV
    Chroma subsampling                       : 4:2:0
    Bit depth                                : 8 bits
    Scan type                                : Progressive
    Bits/(Pixel*Frame)                       : 0.224
    Stream size                              : 3.05 GiB (81%)
    Title                                    : Release Group CINEMANIA
    Language                                 : English
    Default                                  : Yes
    Forced                                   : No
    Color primaries                          : BT.709-5, BT.1361, IEC 61966-2-4, SMPTE RP177
    Transfer characteristics                 : BT.709-5, BT.1361
    Matrix coefficients                      : BT.709-5, BT.1361, IEC 61966-2-4 709, SMPTE RP177

    Audio #1
    ID                                       : 2
    Format                                   : AC-3
    Format/Info                              : Audio Coding 3
    Mode extension                           : CM (complete main)
    Codec ID                                 : A_AC3
    Duration                                 : 1h 57mn
    Bit rate mode                            : Constant
    Bit rate                                 : 384 Kbps
    Channel(s)                               : 6 channels
    Channel positions                        : Front: L C R, Side: L R, LFE
    Sampling rate                            : 48.0 KHz
    Bit depth                                : 16 bits
    Compression mode                         : Lossy
    Stream size                              : 323 MiB (8%)
    Title                                    : Пиратская Студия
    Language                                 : Russian
    Default                                  : Yes
    Forced                                   : Yes

    Audio #2
    ID                                       : 3
    Format                                   : AC-3
    Format/Info                              : Audio Coding 3
    Mode extension                           : CM (complete main)
    Codec ID                                 : A_AC3
    Duration                                 : 1h 57mn
    Bit rate mode                            : Constant
    Bit rate                                 : 384 Kbps
    Channel(s)                               : 6 channels
    Channel positions                        : Front: L C R, Side: L R, LFE
    Sampling rate                            : 48.0 KHz
    Bit depth                                : 16 bits
    Compression mode                         : Lossy
    Stream size                              : 323 MiB (8%)
    Language                                 : English
    Default                                  : No
    Forced                                   : No

    Text
    ID                                       : 4
    Format                                   : UTF-8
    Codec ID                                 : S_TEXT/UTF8
    Codec ID/Info                            : UTF-8 Plain Text
    Language                                 : English
    Default                                  : No
    Forced                                   : No

    Menu
    00:00:00.000                             : en:Chapter 1
    00:09:47.000                             : en:Chapter 2
    00:19:50.000                             : en:Chapter 3
    00:30:29.000                             : en:Chapter 4
    00:42:14.000                             : en:Chapter 5
    00:53:26.000                             : en:Chapter 6
    01:05:06.000                             : en:Chapter 7
    01:13:27.000                             : en:Chapter 8
    01:23:26.000                             : en:Chapter 9
    01:32:53.000                             : en:Chapter 10
    01:41:53.000                             : en:Chapter 11
    01:51:38.000                             : en:Chapter 12

    Скриншоты:

    Каталог Новинок (Фильмы-трейлеры, Игры, Сериалы, Мультфильмы)

    © Оформление by Raven
    pb.wtf



  • Скачать Джо через торрент http://pic.kartinco.top/images/6/ordi9.jpg Скачать фильм Джо через торрент бесплантно в хорошем качестве Описание:В сонном городке на Миссисипи встретилось два одиноких человека. Юный Гарри поставил крест на своем будущем, не зная как ... 9.9 10 8
    Торрент: Зарегистрирован [2014-04-29 16:01] · скачан: 245 раз
    Статус: T временная
    Размер: 3.75 GB
    Как cкачать? Как скачать Джо через торрент | qTorrent

    % Раздел Тема Автор DL S | L
    Фильмы [HD 720p, 1080p] (Хороший звук DUB, MVO) [ 8.03 GB ] Что скрывает ложь / Trespass [2011 BDRip ] ACFIORENTINA Скачать
    1 | 0
    T Фильмы [HD 720p, 1080p] (Хороший звук DUB, MVO) [ 4.75 GB ] G.I. Joe: Бросок кобры 2 / G.I. Joe: Retaliation [EXTENDED] [2013 BDRip 720p [ Чистый звук] Ворон Скачать
    1 | 0
    Фильмы 2006-2008 [ 2.18 GB ] Козырные тузы / Smokin' Aces /Джо Карнахан / Joe Carnahan) [2006 BDRip DUB + Оригинал] Aironhald Скачать
    1 | 0
    3D Фильмы [ 6.88 GB ] G.I. Joe: Бросок кобры 2 в 3D / G.I. Joe: Retaliation in 3D [2013 BDRip 1080p + Оригинал] Анаглиф slaventi-69 Скачать
    1 | 0
    T Фильмы 2011 [ 1.48 GB ] Лето резни / The Summer of Massacre [2011 BDRip] VO + Original Eng Ворон Скачать
    1 | 0
    Фильмы [HD 720p, 1080p] (Хороший звук DUB, MVO) [ 17.28 GB ] Первый мститель / Captain America: The First Avenger [2011 BDRip 1080p DUB + Оригинал+укр дубляж+Sub engrusukr Trava-HD Скачать
    1 | 0
    Фильмы 2013 [DVDrip, WEB-DLRip, HDrip] [ 1.46 GB ] G.I. Joe: Бросок кобры 2 / G.I. Joe: Retaliation [2013 HDRip ] Seedtank Скачать
    1 | 0

    28-11-2019 20:33  

    Отключить всю рекламу на сайте

      Дорогой пользователь! Огромная просьба, поблагодарите релизера, оцените раздачу и оставьте свои комментарий, если Вы скачали Джо через торрент бесплатно! Внесите свою лепту в развитие PiratBit!
      Комментировать посты могут только пользователи прошедшие не сложную регистрацию
      Показать сообщения:    

      Джо через торрент
      Скачать бесплатно Джо
      Джо скачать торрент
      Джо смотреть онлайн
      Cкачать фильм Джо бесплатно
      Джо скачать торрент в хорошем качестве
      Джо смотреть онлайн бесплатно в хорошем качестве


      Вы не можете начинать темы
      Вы не можете отвечать на сообщения
      Вы не можете редактировать свои сообщения
      Вы не можете удалять свои сообщения
      Вы не можете голосовать в опросах
      Вы не можете прикреплять файлы к сообщениям
      Вы можете скачивать файлы