Ссылка на приватное зеркало всего за 1$. Внимание количество ограничено!!!

OK

1+1

iTunes

мы

OK

1

WEB-DLRip

Джокер

Пифагор

Ведьмак / The Witcher сериал

Лицензия

ПШазам

ОК

Оно 2

iTunes

30
pack

Вам бонус

ВАЖНО

!!Акция!!

Alien_RageХит недели

RePack

Resident Evil 21

ИГРА 18+

pack

RePack

jed

!!Акция!!

Alien_Rage

RePack

fifa19

RePack

Assassins Creed: Odyssey

RePack

NEED FOR SPEED™ PAYBACK

4 сезон

9 сезон

Бесстыжие 9 сезон

Все сериалы

все сериалы на PB.wtf

RePack

FAR CRY 5
  

Желание жить / Chce sie zyc (Мацей Пепшица / Maciej Pieprzyca) [2013, Польша, драма, DVDRip,Любительский (одноголосый) pb.wtf

Желание жить через торрент pb.wtf

Размер: 708 MB | Добавлен: 5 лет 8 мес. назад | Торрент скачан:41 раз
Скачать  

29-04-2014 17:17 Желание жить Скачать торрент  

Желание жить / Chce sie zyc
Год выпуска: 2013
Страна: Польша
Жанр: драма
Продолжительность: 01:47:05
Перевод: Любительский (одноголосый)
Субтитры: Нет

Режиссер: Мацей Пепшица / Maciej Pieprzyca
В ролях: Давид Огродник (Mateusz), Дорота Колак (Mateusz's Mother), Аркадиуш Якубик (Mateusz's Father), Хелена Суецкая (Matylda), Миколай Рознерский (Tomek), Камиль Ткач (Young Mateusz), Tymoteusz Marciniak (Young Tomek), Анна Нехребецка (Bliss Teacher), Катажина Заваджка (Magda), Анна Карчмарчик (Anka), Агнешка Котлярска (Mother of Anka), Януш Хабёр («Lysys»)

Описание: Матеуш - жертва детского церебрального паралича. Он может только ползать и не в силах произнести ни слова. Миловидная женщина-доктор вынесла ему приговор: овощ. Сестра называет дебилом. Брат завидует: не надо ходить в школу. Только мать и отец, чей девиз «никогда не сдаваться!» верят в то, что в немом изуродованном теле живёт полноценный человек. И это так.

kinopoisk.ru: 8.100 (69)
imdb.com: 8.00 (168)

Качество: DVDRip
Формат: AVI
Видео кодек: XviD
Аудио кодек: MP3
Видео: xvid, 704x300 (2.35:1), 799 kbps, 23,976 fps, 0,158 bpp
Аудио: MP3 / 2.0 / 48 kHz / 112 kbps /

General
Complete name : E:\закачки\Желание.жить.2013.Xvid.DVDRip.avi
Format : AVI
Format/Info : Audio Video Interleave
File size : 708 MiB
Duration : 1h 47mn
Overall bit rate : 924 Kbps
Writing application : Lavf51.12.1

Video
ID : 0
Format : xvid
Codec ID : xvid
Duration : 1h 47mn
Bit rate : 800 Kbps
Width : 704 pixels
Height : 300 pixels
Display aspect ratio : 2.35:1
Frame rate : 23.976 fps
Bits/(Pixel*Frame) : 0.158
Stream size : 612 MiB (87%)

Audio
ID : 1
Format : MPEG Audio
Format version : Version 1
Format profile : Layer 3
Mode : Joint stereo
Codec ID : 55
Codec ID/Hint : MP3
Duration : 1h 47mn
Bit rate mode : Constant
Bit rate : 112 Kbps
Channel(s) : 2 channels
Sampling rate : 48.0 KHz
Compression mode : Lossy
Stream size : 85.8 MiB (12%)
Alignment : Aligned on interleaves
Interleave, duration : 24 ms (0.58 video frame)
Writing library : LAME3.97
pb.wtf



Скачать Желание жить через торрент http://i55.fastpic.ru/big/2014/0428/b0/b847e99e15a5faa3a82f5726590c10b0.jpg Скачать фильм Желание жить через торрент бесплантно в хорошем качестве Описание: Матеуш - жертва детского церебрального паралича. Он может только ползать и не в силах произнести ни слова. Миловидная ... 8.2 10 5
Торрент: Зарегистрирован [2014-04-29 17:17] · скачан: 41 раз
Статус: √ проверено
Размер: 708 MB
Как cкачать? Как скачать Желание жить через торрент | qTorrent

28-11-2019 20:33  

Отключить всю рекламу на сайте

29-04-2014 20:46 Желание жить Скачать торрент  

Озвучку бы получше, так бы посмотрел.pb.wtf



30-04-2014 15:35 Желание жить Скачать торрент  

mexan писал(а):

Озвучку бы получше, так бы посмотрел.

надеюсь скоро появитсяpb.wtf



02-03-2018 17:57 Желание жить Скачать торрент  

где можно скачать с оригинальным дубляжом? подскажите пожалуйста.pb.wtf



    Дорогой пользователь! Огромная просьба, поблагодарите релизера, оцените раздачу и оставьте свои комментарий, если Вы скачали Желание жить через торрент бесплатно! Внесите свою лепту в развитие PiratBit!
    Комментировать посты могут только пользователи прошедшие не сложную регистрацию
    Показать сообщения:    

    Желание жить через торрент
    Скачать бесплатно Желание жить
    Желание жить скачать торрент
    Желание жить смотреть онлайн
    Cкачать фильм Желание жить бесплатно
    Желание жить скачать торрент в хорошем качестве
    Желание жить смотреть онлайн бесплатно в хорошем качестве


    Вы не можете начинать темы
    Вы не можете отвечать на сообщения
    Вы не можете редактировать свои сообщения
    Вы не можете удалять свои сообщения
    Вы не можете голосовать в опросах
    Вы не можете прикреплять файлы к сообщениям
    Вы можете скачивать файлы