Ссылка на приватное зеркало нашего сайта всего за 1$. Внимание количество ограничено!!!

2 сезон

iTunes

1 сезон

1

2 сезон

2 сезон

iTunes

1 сезон

RePack

30

Ultimate

ВАЖНО

ИГРА 18+

pack

RePack

MK11
pack

Забери бонус

RePack

jed

!!Акция!!

Alien_Rage

RePack

fifa19

RePack

Assassins Creed: Odyssey

RePack

NEED FOR SPEED™ PAYBACK

4 сезон

9 сезон

Бесстыжие 9 сезон

Все сериалы

все сериалы на PB.wtf

RePack

FAR CRY 5
  

Список Шиндлера / Schindler's List (Стивен Спилберг) [1993 г., драма, военный, биография, история, Blu-ray, Дубляж] pb.wtf

Список Шиндлера через торрент pb.wtf

Размер: 42.77 GB | Добавлен: 6 лет 7 мес. назад | Торрент скачан:3 раза
Скачать  

29-04-2014 19:01 Список Шиндлера Скачать торрент  

Список Шиндлера / Schindler's List
Год выпуска: 1993
Страна: США
Жанр: драма, военный, биография, история
Продолжительность: 03:15:06
Перевод: Дубляж+чешский+венгерский+Польский+Оришинал
Субтитры: Английские, болгарские, эстонские, латвийские, литовские, чешские, русские, венгерские, польские

Режиссер: Стивен Спилберг

В ролях: Лиам Нисон, Бен Кингсли, Рэйф Файнс, Кэролайн Гудолл, Эмбет Дэвидц, Джонатан Сагалл, Малгоша Гебель, Шмуэль Леви, Марк Иванир, Беатриче Макола

Описание: Лента рассказывает реальную историю загадочного Оскара Шиндлера, члена нацистской партии, преуспевающего фабриканта, спасшего во время Второй мировой войны более тысячи ста евреев. Это триумф одного человека, не похожего на других, и драма тех, кто, благодаря ему, выжил в ужасный период человеческой истории.

Качество: Blu-ray
Формат: BDMV
Видео кодек: H.264
Аудио кодек: DTS
Видео: MPEG-4 AVC, (1920x1080),23118Кбит/с, 23.976 кадра/сек
Аудио#1: DTS, 6 ch, 768 kbps (Rus) 48.0 KHz Дубляж
Аудио#2: DTS, 6 ch, 1509 kbps (Eng) 48.0 KHz Оригинал
Аудио#3: DTS, 6 ch, 768 kbps (Ches) 48.0 KHz чешский
Аудио#4: DTS, 6 ch, 768 kbps (Hung) 48.0 KHz венгерский
Аудио#5: DTS, 6 ch, 768 kbps (Pol) 48.0 KHz Польский
скриншот   скриншот   скриншот  

Тип потока: Видео
Длительность: 03:15:06
Кодек: AVC
Кодек/описание: Advanced Video Codec
Кодек/профиль: High@L4.1
Кодек/ID: 27
Кодек/CABAC: Yes
Кодек/ReFrames: 4 frames
Размеры изображения: 1920 x 1080 (16:9)
Частота кадров: 23.976 fps
Битрейт/макс: 34.0 Mbps
Битрейт/тип: VBR
Цветовое пространство: YUV
Тип развёртки: Progressive
Колориметрия: 4:2:0
Глубина: 8 bits
:
Тип потока: Звук #1
Длительность: 03:15:06.549
Кодек: DTS
Кодек/описание: Digital Theater Systems
Кодек/профиль: MA / Core
Режим смешивания: Stream extension
Кодек/ID: 134
Частота дискретизации: 48.0 KHz
Каналов: 6 channels
Битрейт: Unknown / 1 509 Kbps
Битрейт/тип: Variable
Глубина: 24 bits
Метод сжатия: Lossless / Lossy
:
Тип потока: Звук #2
Длительность: 03:15:06.571
Кодек: DTS
Кодек/описание: Digital Theater Systems
Кодек/ID: 130
Частота дискретизации: 48.0 KHz
Каналов: 6 channels
Битрейт: 768 Kbps
Битрейт/тип: Constant
Размер потока: 1.05 GiB (3%)
Глубина: 24 bits
Метод сжатия: Lossy
:
Тип потока: Звук #3
Длительность: 03:15:06.571
Кодек: DTS
Кодек/описание: Digital Theater Systems
Кодек/ID: 130
Частота дискретизации: 48.0 KHz
Каналов: 6 channels
Битрейт: 768 Kbps
Битрейт/тип: Constant
Размер потока: 1.05 GiB (3%)
Глубина: 24 bits
Метод сжатия: Lossy
:
Тип потока: Звук #4
Длительность: 03:15:06.571
Кодек: DTS
Кодек/описание: Digital Theater Systems
Кодек/ID: 130
Частота дискретизации: 48.0 KHz
Каналов: 6 channels
Битрейт: 768 Kbps
Битрейт/тип: Constant
Размер потока: 1.05 GiB (3%)
Глубина: 24 bits
Метод сжатия: Lossy
:
Тип потока: Звук #5
Длительность: 03:15:06.571
Кодек: DTS
Кодек/описание: Digital Theater Systems
Кодек/ID: 130
Частота дискретизации: 48.0 KHz
Каналов: 6 channels
Битрейт: 768 Kbps
Битрейт/тип: Constant
Размер потока: 1.05 GiB (3%)
Глубина: 24 bits
Метод сжатия: Lossy
:
Тип потока: Субтитры #1
Формат: PGS
:
Тип потока: Субтитры #2
Формат: PGS
:
Тип потока: Субтитры #3
Формат: PGS
:
Тип потока: Субтитры #4
Формат: PGS
:
Тип потока: Субтитры #5
Формат: PGS
:
Тип потока: Субтитры #6
Формат: PGS
:
Тип потока: Субтитры #7
Формат: PGS
:
Тип потока: Субтитры #8
Формат: PGS
:
Тип потока: Субтитры #9
Формат: PGS
:
Тип потока: Субтитры #10
Формат: PGS
:
Тип потока: Субтитры #11
Формат: PGS
:
Тип потока: Субтитры #12
Формат: PGS
:
Тип потока: Субтитры #13
Формат: PGS
:
Тип потока: Субтитры #14
Формат: PGS

pb.wtf



Скачать Список Шиндлера через торрент http://pic.kartinco.top/images/6/v6tjq.jpg Скачать фильм Список Шиндлера через торрент бесплантно в хорошем качестве Описание: Лента рассказывает реальную историю загадочного Оскара Шиндлера, члена нацистской партии, преуспевающего фабриканта, спасшего во ... 10 10 5
Info! Золотая раздача, скачанное не засчитывается.
Торрент: Зарегистрирован [2014-04-29 19:01] · скачан: 3 раз
Статус: √ проверено
Размер: 42.77 GB
Как cкачать? Как скачать Список Шиндлера через торрент | qTorrent

28-11-2019 20:33  

Отключить всю рекламу на сайте

    Дорогой пользователь! Огромная просьба, поблагодарите релизера, оцените раздачу и оставьте свои комментарий, если Вы скачали Список Шиндлера через торрент бесплатно! Внесите свою лепту в развитие PiratBit!
    Комментировать посты могут только пользователи прошедшие не сложную регистрацию
    Показать сообщения:    

    Список Шиндлера через торрент
    Скачать бесплатно Список Шиндлера
    Список Шиндлера скачать торрент
    Список Шиндлера смотреть онлайн
    Cкачать фильм Список Шиндлера бесплатно
    Список Шиндлера скачать торрент в хорошем качестве
    Список Шиндлера смотреть онлайн бесплатно в хорошем качестве


    Вы не можете начинать темы
    Вы не можете отвечать на сообщения
    Вы не можете редактировать свои сообщения
    Вы не можете удалять свои сообщения
    Вы не можете голосовать в опросах
    Вы не можете прикреплять файлы к сообщениям
    Вы можете скачивать файлы