Достать ножи: Стеклянная луковица

MVO

Добыча

Дубляж

Уэнсдэй

1 сезон

Тор

Дубляж

13 клиническая

1 сезон

Жестокая ночь

MVO

Одни из нас

1 сезон

Deluxe

pack

Рекомендуем

30

Пиратка

ВАЖНО

ВАЖНО

Ghostwire

Пиратка

jed

RePack

nioh2

RePack

RDR2

RePack

NEED FOR SPEED™ PAYBACK

RePack

скачать торрент

Кинопоиск HD

Острые козырьки 6 сезон

6 сезон

FAR CRY 6

RePack

скачать торрент

Лицензия

скачать торрент

MVO

1

1 сезон

скачать торрент

1 сезон

скачать торрент

Лицензия

  

Чистая кожа / Cleanskin (Хади Хаджэйг / Hadi Hajaig) [2012, Великобритания, триллер, драма, криминал, HDRip,Профессиональный (многоголосый, закадровый) [НТВ+]

Чистая кожа через торрент pb.wtf

Размер: 1.37 GB | Добавлен: 8 лет 8 мес. назад | Торрент скачан:253 раза
Смотреть онлайн | Скачать | Поддержите нас   

30-04-2014 21:40 Чистая кожа Скачать торрент  

Чистая кожа / Cleanskin
«Fight fire with fire»

Год выпуска: 2012
Страна:Великобритания
Жанр:триллер, драма, криминал
Продолжительность:01:47:50
Перевод:Профессиональный (многоголосый, закадровый) [НТВ+]
Субтитры: Нет
Режиссер:Хади Хаджэйг / Hadi Hajaig

  • В ролях:

    Шон Бин (Ewan), Шарлотта Рэмплинг (Charlotte), Абин Галейя (Ash), Том Бёрк (Mark), Таппенс Мидлтон (Kate), Питер Поликарпу (Nabil), Сайлас Карсон (Amin), Джеймс Фокс (Scott), Мишель Райан (Emma), Сэм Дуглас (Harry), Тарик Джордан (Paul), Крис Риман (Yussif)

  • Описание:
    Эван - тайный правительственный агент, перед которым стоит задача выследить и ликвидировать террориста-смертника и его террористическую ячейку.

  • Мировая премьера:9 марта 2012


      Качество: HDRip
      Формат: AVI
      Видео кодек: XviD
      Аудио кодек:AC3
      Видео: XviD, 720x304 (2.35:1), 1420 kbps, 23,976 fps, 0,271 bpp
      Аудио: AC3 / 5.1 / 48 kHz / 384 kbps / 16 bit

    Код:

    General
    Complete name                            : D:\Торенты\Chistaja.kozha.2012.P.HDRip.1400MB.avi
    Format                                   : AVI
    Format/Info                              : Audio Video Interleave
    File size                                : 1.37 GiB
    Duration                                 : 1h 47mn
    Overall bit rate                         : 1 814 Kbps
    Writing application                      : VirtualDubMod 1.5.10.2 (build 2540/release)
    Writing library                          : VirtualDubMod build 2540/release

    Video
    ID                                       : 0
    Format                                   : MPEG-4 Visual
    Format profile                           : Advanced [email protected]
    Format settings, BVOP                    : 2
    Format settings, QPel                    : No
    Format settings, GMC                     : No warppoints
    Format settings, Matrix                  : Default (MPEG)
    Codec ID                                 : XVID
    Codec ID/Hint                            : XviD
    Duration                                 : 1h 47mn
    Bit rate                                 : 1 421 Kbps
    Width                                    : 720 pixels
    Height                                   : 304 pixels
    Display aspect ratio                     : 2.35:1
    Frame rate                               : 23.976 fps
    Color space                              : YUV
    Chroma subsampling                       : 4:2:0
    Bit depth                                : 8 bits
    Scan type                                : Progressive
    Compression mode                         : Lossy
    Bits/(Pixel*Frame)                       : 0.271
    Stream size                              : 1.07 GiB (78%)
    Writing library                          : XviD 1.2.1 (UTC 2008-12-04)

    Audio
    ID                                       : 1
    Format                                   : AC-3
    Format/Info                              : Audio Coding 3
    Mode extension                           : CM (complete main)
    Codec ID                                 : 2000
    Duration                                 : 1h 47mn
    Bit rate mode                            : Constant
    Bit rate                                 : 384 Kbps
    Channel(s)                               : 6 channels
    Channel positions                        : Front: L C R, Side: L R, LFE
    Sampling rate                            : 48.0 KHz
    Bit depth                                : 16 bits
    Compression mode                         : Lossy
    Stream size                              : 296 MiB (21%)
    Alignment                                : Split accross interleaves
    Interleave, duration                     : 42 ms (1.00 video frame)
    Interleave, preload duration             : 500 ms

    Скриншоты:

    Каталог Новинок (Фильмы-трейлеры, Игры, Сериалы, Мультфильмы)

    © Оформление by Raven



  • Скачать Чистая кожа через торрент https://pic1.kartinco.top/images/61/v1jr1.jpg Скачать, смотреть онлайн Чистая кожа бесплантно в хорошем качестве Описание:Эван - тайный правительственный агент, перед которым стоит задача выследить и ликвидировать террориста-смертника и его ... 10 10 6
    Торрент: Зарегистрирован [2014-04-30 21:40] · скачан: 253 раз
    Статус: √ проверено
    Размер: 1.37 GB
    Как cкачать? Как скачать Чистая кожа через торрент | UTorrent

    % Раздел Тема Автор DL S | L
    Фильмы 2012 [ 1.46 GB ] Чистая кожа / Cleanskin | | HDRip Mr. Freeman Скачать
    1 | 0

    28-11-2019 20:33  


    Отключить вcю реклaмy на сайте, в т.ч. и в плеере онлайн просмотра!

      Дорогой пользователь! Огромная просьба, поблагодарите релизера, оцените раздачу и оставьте свои комментарий, если Вы скачали Чистая кожа через торрент бесплатно!!
      Комментировать посты могут только пользователи прошедшие не сложную регистрацию
      Показать сообщения:    


      Чистая кожа через торрент
      Скачать бесплатно Чистая кожа
      Чистая кожа скачать торрент
      Чистая кожа смотреть онлайн
      Cкачать фильм Чистая кожа бесплатно
      Чистая кожа скачать торрент в хорошем качестве
      Чистая кожа смотреть онлайн бесплатно в хорошем качестве
      Вы не можете начинать темы
      Вы не можете отвечать на сообщения
      Вы не можете редактировать свои сообщения
      Вы не можете удалять свои сообщения
      Вы не можете голосовать в опросах
      Вы не можете прикреплять файлы к сообщениям
      Вы можете скачивать файлы
      Чистая кожа / Cleanskin [2012, Великобритания, триллер, драма, криминал, HDRip,Профессиональный [НТВ picoco.icu