Мега распродажа FORZA HORIZON 4 ULTIMATE+ВСЕ DLC+ОНЛАЙН всего за 499р. 349 руб. (супер цена). Внимание количество ограничено!!!

Лицензия

30

iTunes

мы

iTunes

1

1 сезон

Чернобыль

1 сезон

Ральф против интернета

MVO

Покемон. Детектив Пикачу

8 сезон

Игра престолов

iTunes

1+1

ИГРА 18+

pack

ВАЖНО

!!Акция!!

Alien_RageХит недели

RePack

Resident Evil 21
pack

RePack

Metro:Exodus

!!Акция!!

Alien_Rage

RePack

fifa19

RePack

Assassins Creed: Odyssey

RePack

NEED FOR SPEED™ PAYBACK

3 сезон

9 сезон

Бесстыжие 9 сезон

Все сериалы

все сериалы на PB.wtf

RePack

FAR CRY 5
Ребята, катастрофически не хватает 2730р. для оплаты серверов за МАЙ (всвязи с блокировками трафик упал в 3 раза), 1-2р., выручайте.
  

Тигровая бухта / Tiger Bay [1959 г., триллер, драма, криминал, WEB-DLRip] [DUB] pb.wtf

Тигровая бухта через торрент pb.wtf

Размер: 749 MB | Добавлен: 5 лет 1 мес. назад | Торрент скачан:9 раз
Скачать  

01-05-2014 12:48 Тигровая бухта Скачать торрент  

Тигровая бухта / Tiger Bay
Год выпуска: 1959
Страна: США
Жанр: триллер, драма, криминал
Продолжительность: 01:47:06
Перевод: Профессиональный (полное дублирование) Дубляжная группа киностудии имени ИМ. Горького
Тип релиза: Лицензия




В ролях: Джон Миллз,Хорст Буххольц,Хейли Миллз,Ивонн Митчелл,Мегс Дженкинс,Энтони Доусон,Джордж Селвэй,Шари,Джордж Пэстелл,Пол Стассино

Описание: Джилли — девочка-сорванец, подглядывая за ссорящейся парочкой, становится свидетельницей случайного рокового выстрела: польский моряк по фамилии Корчинский возвратившийся из плавания в Кардифф, убивает свою подругу в приступе ревности. Джилли подбирает и прячет брошенный пистолет, проникается симпатией к неуравновешенному парню — убийце и хочет ему помочь. Ей удаётся ловко и изобретательно заморочить голову полицейским. Несмотря на прессинг, она не выдаёт убийцу, скрывает правду и изо всех сил защищает моряка…

Качество: WEB-DLRip
Формат: AVI
Видео кодек: XviD
Аудио кодек: MP3
Видео: 624x368 (1.70:1), 23.976 fps, XviD build 73 ~840 kbps avg, 0.15 bit/pixel
Аудио#1: 48 kHz, MPEG Layer 3, 2 ch, ~128.00 kbps avg
Релиз от: Deadmauvlad
скриншот   скриншот   скриншот   скриншот   скриншот   скриншот   скриншот   скриншот  

Код:

Общее
Полное имя                               : D:\Рипы выкладка [Deadmauvlad]\Рипы готовые\Tiger.Bay.1959.WEB-DLRip.Rus.Deadmauvlad.avi
Формат                                   : AVI
Формат/Информация                        : Audio Video Interleave
Размер файла                             : 749 Мбайт
Продолжительность                        : 1 ч. 47 м.
Общий поток                              : 977 Кбит/сек
Название фильма                          : Tiger.Bay.1959.WEB-DLRip.Rus.Deadmauvlad
Режиссёр                                 : Deadmauvlad
Жанр                                     : триллер,криминал,драма
Программа кодирования                    : VirtualDubMod 1.5.10.3 | www.virtualdub-fr.org || (build 2550/release)
Формат оригинала/Имя                     : Фильм
Правообладатель                          : Goldenshara

Видео
Идентификатор                            : 0
Формат                                   : MPEG-4 Visual
Профиль формата                          : Advanced Simple@L5
Параметр BVOP формата                    : 1
Параметр QPel формата                    : Нет
Параметр GMC формата                     : Без точки перехода
Параметр матрицы формата                 : Выборочная
Идентификатор кодека                     : XVID
Идентификатор кодека/Подсказка           : XviD
Продолжительность                        : 1 ч. 47 м.
Битрейт                                  : 840 Кбит/сек
Ширина                                   : 624 пикселя
Высота                                   : 368 пикселей
Соотношение сторон                       : 1,696
Частота кадров                           : 23,976 кадра/сек
Цветовое пространство                    : YUV
Субдискретизация насыщенности            : 4:2:0
Битовая глубина                          : 8 бит
Тип развёртки                            : Прогрессивная
Метод сжатия                             : С потерями
Бит/(Пиксели*Кадры)                      : 0.153
Размер потока                            : 644 Мбайт (86%)
Библиотека кодирования                   : XviD 73

Аудио
Идентификатор                            : 1
Формат                                   : MPEG Audio
Версия формата                           : Version 1
Профиль формата                          : Layer 3
Идентификатор кодека                     : 55
Идентификатор кодека/Подсказка           : MP3
Продолжительность                        : 1 ч. 47 м.
Вид битрейта                             : Постоянный
Битрейт                                  : 128 Кбит/сек
Каналы                                   : 2 канала
Частота                                  : 48,0 КГц
Метод сжатия                             : С потерями
Размер потока                            : 98,1 Мбайт (13%)
Выравнивание                             : Соединение по промежуткам
Продолжительность промежутка             : 42  мс. (1,00 видеокадр)
Время предзагрузки промежутка            : 504  мс.
Библиотека кодирования                   : LAME3.99r
Настройки программы                      : -m s -V 4 -q 2 -lowpass 17 -b 128


pb.wtf



Скачать Тигровая бухта через торрент http://pic.kartinco.top/images/6/4wwzo.jpg Скачать фильм Тигровая бухта через торрент бесплантно в хорошем качестве Описание: Джилли — девочка-сорванец, подглядывая за ссорящейся парочкой, становится свидетельницей случайного рокового выстрела: польский ... 10 10 2
Info! Золотая раздача, скачанное не засчитывается.
Торрент: Зарегистрирован [2014-05-01 12:48] · скачан: 9 раз
Статус: √ проверено
Размер: 749 MB
Как cкачать? Как скачать Тигровая бухта через торрент | qTorrent


>> Регистрируемся здесь <<






Отзывы и комментарии о схеме читаем и пишем здесь: ---> Отзывы и комментарии о схеме

Новые благодарочки в телеграм довольных пользователей:
скриншот   скриншот   скриншот   скриншот   скриншот
    Дорогой пользователь! Огромная просьба, поблагодарите релизера, оцените раздачу и оставьте свои комментарий, если Вы скачали Тигровая бухта через торрент бесплатно! Внесите свою лепту в развитие PiratBit!
    Комментировать посты могут только пользователи прошедшие не сложную регистрацию
    Показать сообщения:    

    Тигровая бухта через торрент
    Скачать бесплатно Тигровая бухта
    Тигровая бухта скачать торрент
    Тигровая бухта смотреть онлайн
    Cкачать фильм Тигровая бухта бесплатно
    Тигровая бухта скачать торрент в хорошем качестве
    Тигровая бухта смотреть онлайн бесплатно в хорошем качестве


    Вы не можете начинать темы
    Вы не можете отвечать на сообщения
    Вы не можете редактировать свои сообщения
    Вы не можете удалять свои сообщения
    Вы не можете голосовать в опросах
    Вы не можете прикреплять файлы к сообщениям
    Вы можете скачивать файлы