1 сезон

1 сезон

iTunes

1

КиноПоиск HD

Кинопоиск HD

iTunes

13

1 сезон

RePack

30

Ultimate

ВАЖНО

ИГРА 18+

pack

RePack

MK11
pack

Легкие деньги

RePack

jed

RePack

fifa19

RePack

RDR2

RePack

NEED FOR SPEED™ PAYBACK

4 сезон

9 сезон

Бесстыжие 9 сезон

Все сериалы

все сериалы на PB.wtf

RePack

FAR CRY 5
  
Magnet ссылка

Белые цыпочки / White Chicks (Кинен Айвори Уайанс / Keenen Ivory Wayans) [2004, США, комедия, криминал,HDTVRip 720p,Профессиональный (многоголосый, закадровый) pb.wtf

Белые цыпочки через торрент pb.wtf

Качают: 1 [ 0 KB/s ]
Размер: 2.21 GB | Добавлен: 6 лет 11 мес. назад | Торрент скачан:166 раз
Скачать  

01-05-2014 14:58 Белые цыпочки Скачать торрент  

Белые цыпочки / White Chicks

Год выпуска: 2004
Страна: США
Жанр: комедия, криминал
Продолжительность: 01:48:45
Перевод: Профессиональный (многоголосый, закадровый)
Субтитры: Нет
Режиссер: Кинен Айвори Уайанс / Keenen Ivory Wayans
В ролях: Шон Уайанс (Kevin Copeland), Марлон Уайанс (Marcus Copeland), Джейми Кинг (Heather Vandergeld), Фрэнки Фэйзон (Chief Elliott Gordon), Локлин Манро (Agent Jake Harper), Джон Хёрд (Warren Vandergeld), Бизи Филиппс (Karen), Терри Крюс (Latrell Spencer), Бриттани Дэниэл (Megan Vandergeld), Эдди Велес (Agent Vincent Gomez), Джессика Коффил (Tori), Мейтленд Уорд (Brittany Wilson)
Описание:
Изрядно проштрафившиеся агенты ФБР (братья афро-американцы) решают обелить себя перед руководством. Причем как в переносном, так и в прямом смыслах. Их миссией становится защита двух сестер Уилтон, наследниц огромной гостиничной империи, от похищения во время их переезда из нью-йоркского аэропорта в отель Хэмптонс.
Вновь переоценив свои способности, братья придумывают новый бредовый план - спрятать сестер в укромном месте, а самим переодеться и загримироваться в них, благо приезжих миллионерш в лицо мало кто знает.
Все, что им теперь осталось сделать -убедить весь остальной мир (включая остальных сотрудников ФБР, «охраняющих» их, а также всех родных и близких сестер Уилтон) в том, что они действительно молодые, богатые бледнолицые миллионерки. Проколы и приколы подобное развитие событий вполне предусматривает...
Рейтинг
kinopoisk.ru: 6.414 (16 594)
imdb.com: 5.30 (73 833)
MPAA: PG-13 - Детям до 13 лет просмотр не желателен
Качество: HDTVRip 720
Формат: MKV
Видео кодек:AVC
Аудио кодек: AC3
Видео: AVC, 1280x720 (16:9), 2476 kbps, 23,976 fps, 0,112 bpp
Аудио: русский / AC3 / 5.1 / 48 kHz / 448 kbps / 16 bit ||

General
Unique ID : 211258378790961520588527928472048895355 (0x9EEEE23EDB6319C6BCB45CDA72FA057B)
Complete name : F:\White_Chicks.[flintfilms].mkv
Format : Matroska
Format version : Version 2
File size : 2.21 GiB
Duration : 1h 48mn
Overall bit rate mode : Variable
Overall bit rate : 2 905 Kbps
Movie name : Rip by Romeo (FLINTFILMS.RU)
Encoded date : UTC 2010-08-12 17:16:58
Writing application : mkvmerge v3.0.0 ('Hang up your Hang-Ups') built on Dec 12 2009 15:20:35
Writing library : libebml v0.7.9 + libmatroska v0.8.1

Video
ID : 1
Format : AVC
Format/Info : Advanced Video Codec
Format profile : High@L4.1
Format settings, CABAC : Yes
Format settings, ReFrames : 3 frames
Codec ID : V_MPEG4/ISO/AVC
Duration : 1h 48mn
Bit rate mode : Variable
Bit rate : 2 476 Kbps
Maximum bit rate : 17.5 Mbps
Width : 1 280 pixels
Height : 720 pixels
Display aspect ratio : 16:9
Frame rate : 23.976 fps
Color space : YUV
Chroma subsampling : 4:2:0
Bit depth : 8 bits
Scan type : Progressive
Bits/(Pixel*Frame) : 0.112
Stream size : 1.82 GiB (83%)
Title : Белые цыпочки.[flintfilms.ru]
Writing library : x264 core 102 r1666 d058f37
Encoding settings : cabac=1 / ref=1 / deblock=1:0:0 / analyse=0x3:0x3 / me=dia / subme=1 / psy=1 / psy_rd=0.00:0.00 / mixed_ref=0 / me_range=16 / chroma_me=1 / trellis=0 / 8x8dct=1 / cqm=0 / deadzone=21,11 / fast_pskip=1 / chroma_qp_offset=0 / threads=6 / sliced_threads=0 / slices=4 / nr=0 / decimate=1 / interlaced=0 / constrained_intra=0 / bframes=3 / b_pyramid=1 / b_adapt=1 / b_bias=0 / direct=1 / weightb=1 / open_gop=0 / weightp=0 / keyint=24 / keyint_min=1 / scenecut=40 / intra_refresh=0 / rc_lookahead=0 / rc=abr / mbtree=0 / bitrate=2476 / ratetol=1.0 / qcomp=0.60 / qpmin=0 / qpmax=51 / qpstep=4 / vbv_maxrate=17500 / vbv_bufsize=14500 / ip_ratio=1.10 / pb_ratio=1.10 / aq=1:1.00 / nal_hrd=vbr
Language : English
Default : Yes
Forced : No

Audio
ID : 2
Format : AC-3
Format/Info : Audio Coding 3
Mode extension : CM (complete main)
Codec ID : A_AC3
Duration : 1h 48mn
Bit rate mode : Constant
Bit rate : 448 Kbps
Channel(s) : 6 channels
Channel positions : Front: L C R, Side: L R, LFE
Sampling rate : 48.0 KHz
Bit depth : 16 bits
Compression mode : Lossy
Stream size : 348 MiB (15%)
Title : Профессиональный (полное дублирование)
Language : Russian
Default : Yes
Forced : No
pb.wtf



Скачать Белые цыпочки через торрент http://i1.imageban.ru/out/2014/05/01/4a0c0ca5115171622cad4563aa6cd420.jpg Скачать фильм Белые цыпочки через торрент бесплантно в хорошем качестве Описание: Изрядно проштрафившиеся агенты ФБР (братья афро-американцы) решают обелить себя перед руководством. Причем как в переносном, так ... 10 10 12
Торрент: Зарегистрирован [2014-05-01 14:58] · скачан: 166 раз
Статус: √ проверено
Размер: 2.21 GB
Как cкачать? Как скачать Белые цыпочки через торрент | UTorrent

% Раздел Тема Автор DL S | L
Фильмы (WEB-DL 720p, 1080p) [ 7.32 GB ] Белые цыпочки / White Chicks [2004 HDTV 1080i ] Бумер Скачать
1 | 0
Порно фильмы HD [ 2.21 GB ] Белые Цыпочки Любят Большие Черные Члены / White Chicks Love Big Black Dicks [2015 Interracial Big Dick Young Big Butt WEB-DLRip Оригинал] Pir@tya2010 Скачать
1 | 0
Этнические порно фильмы [ 1.86 GB ] Молоденькие черные цыпочки пробуют белые члены / Teeny Black Chicks Trying White Dicks [2013 All Sex Movies Interracial Black Girls DVDRip-AVC Оригинал] sheker187 Скачать
1 | 0

28-11-2019 20:33  

Отключить всю рекламу на сайте

    Дорогой пользователь! Огромная просьба, поблагодарите релизера, оцените раздачу и оставьте свои комментарий, если Вы скачали Белые цыпочки через торрент бесплатно! Внесите свою лепту в развитие PiratBit!
    Комментировать посты могут только пользователи прошедшие не сложную регистрацию
    Показать сообщения:    

    Белые цыпочки через торрент
    Скачать бесплатно Белые цыпочки
    Белые цыпочки скачать торрент
    Белые цыпочки смотреть онлайн
    Cкачать фильм Белые цыпочки бесплатно
    Белые цыпочки скачать торрент в хорошем качестве
    Белые цыпочки смотреть онлайн бесплатно в хорошем качестве


    Вы не можете начинать темы
    Вы не можете отвечать на сообщения
    Вы не можете редактировать свои сообщения
    Вы не можете удалять свои сообщения
    Вы не можете голосовать в опросах
    Вы не можете прикреплять файлы к сообщениям
    Вы можете скачивать файлы