Ссылка на приватное зеркало всего за 1$. Внимание количество ограничено!!!

OK

1+1

iTunes

мы

OK

1

WEB-DLRip

Джокер

Пифагор

Ведьмак / The Witcher сериал

iTunes

ПШазам

ОК

Оно 2

iTunes

30
pack

Вам бонус

ВАЖНО

!!Акция!!

Alien_RageХит недели

RePack

Resident Evil 21

ИГРА 18+

pack

RePack

jed

RePack

fifa19

RePack

Assassins Creed: Odyssey

RePack

NEED FOR SPEED™ PAYBACK

4 сезон

9 сезон

Бесстыжие 9 сезон

Все сериалы

все сериалы на PB.wtf

RePack

FAR CRY 5
  

Врачиха / Серия 1-8 из 8 (Екатерина Двигубская) [2014 г., Мелодрама, SATRip] pb.wtf

Врачиха через торрент pb.wtf

Размер: 5 GB | Добавлен: 5 лет 8 мес. назад | Торрент скачан:391 раз
Скачать  

01-05-2014 15:06 Врачиха Скачать торрент  

Врачиха Год выпуска: 2014
Страна: Россия
Жанр: Мелодрама
Продолжительность: 47 Минут серия

Режиссер: Екатерина Двигубская

В ролях: Полина Стрельникова, Андрей Фролов (II), Елена Коренева, Олег Алмазов, Татьяна Колганова

Описание: Кате Захаровой прочат блестящее музыкальное будущее. Но в один день все ее мечты рушатся, как карточный домик. В результате аферы, подстроенной риелтором, она остается без денег и крыши над головой, а тут еще маму разбивает инсульт. Ради спасения матери Катя оставляет музыку и становится врачом. Но мама умирает, и тогда Катя решает отомстить человеку, разрушившему ее жизнь. В результате долгих поисков она оказывается в деревне, где встречает свою любовь. Кажется, судьба вновь улыбается ей, но неожиданно Катя узнает такое, что не только лишает ее надежды на счастье, но и вообще выбивает почву из-под ног...

Качество: SATRip
Формат: AVI
Видео кодек: DivX
Аудио кодек: MP3
Видео: MPEG4, DivX 5, 720x400 (16:9), 25.000 fps, 1 800 Kbps (0.250 bit/pixel)
Аудио: MP3, 48.0 KHz, 2 ch, 192 Kbps, CBR

Код:

Полное имя                               : D:\Games\Vrachiha.SATRip.[www.PB.wtf]\Vrachiha.1.SATRip.[www.PB.wtf].avi
Формат                                   : AVI
Формат/Информация                        : Audio Video Interleave
Размер файла                             : 677 Мбайт
Продолжительность                        : 47 м.
Общий поток                              : 2002 Кбит/сек
Библиотека кодирования                   : VirtualDub build 29808/release

Видео
Идентификатор                            : 0
Формат                                   : MPEG-4 Visual
Параметр BVOP формата                    : Нет
Параметр QPel формата                    : Нет
Параметр GMC формата                     : Без точки перехода
Параметр матрицы формата                 : Default (H.263)
Идентификатор кодека                     : DX50
Идентификатор кодека/Подсказка           : DivX 5
Продолжительность                        : 47 м.
Битрейт                                  : 1800 Кбит/сек
Ширина                                   : 720 пикселей
Высота                                   : 400 пикселей
Соотношение сторон                       : 16:9
Частота кадров                           : 25,000 кадров/сек
Цветовое пространство                    : YUV
Субдискретизация насыщенности            : 4:2:0
Битовая глубина                          : 8 бит
Тип развёртки                            : Прогрессивная
Метод сжатия                             : С потерями
Бит/(Пиксели*Кадры)                      : 0.250
Размер потока                            : 609 Мбайт (90%)
Библиотека кодирования                   : DivX 6.8.5 (UTC 2009-08-20)

Аудио
Идентификатор                            : 1
Формат                                   : MPEG Audio
Версия формата                           : Version 1
Профиль формата                          : Layer 3
Режим                                    : Joint stereo
Расширение режима                        : MS Stereo
Идентификатор кодека                     : 55
Идентификатор кодека/Подсказка           : MP3
Продолжительность                        : 47 м.
Вид битрейта                             : Постоянный
Битрейт                                  : 192 Кбит/сек
Каналы                                   : 2 канала
Частота                                  : 48,0 КГц
Метод сжатия                             : С потерями
Размер потока                            : 64,9 Мбайт (10%)
Выравнивание                             : Разделение по промежуткам
Продолжительность промежутка             : 40  мс. (1,00 видеокадр)
Время предзагрузки промежутка            : 500  мс

.


Внимание! Раздача ведётся путём добавления новых серий; при каждом добавлении создётся новый торрент. Чтобы начать докачку новой серии, пользователям необходимо сделать следующее:
(1) остановить скачивание,
(2) удалить старый торрент у себя из клиента (старые серии удалять не надо),
(3) скачать новый торрент и запустить его у себя в клиенте вместо старого, при этом указать клиенту путь в старую папку куда и должно происходить скачивание новых серий.
Ваш клиент при этом должен произвести хеширование (проверку) старой папки (если не производит сам - помогите ему сделать это), и будет докачивать только те серии которых у вас ещё нет. Старые серии при этом не удаляются, а продолжают раздаваться!
Eсли вы уже удалили старые серии, то предотвратить повторную закачку старых серий можно, отжав галочку в соответсвующих местах при запуске нового торрента. По возможности, желательно не удалять старые серии как можно дольше чтобы релизёр не столько продолжал раздавать старые серии, а смог сконцентрироваться на новых.
Добавлена 5-8 серияpb.wtf



Скачать Врачиха через торрент http://pic.kartinco.top/images/6/osz2g.jpg Скачать фильм Врачиха через торрент бесплантно в хорошем качестве Описание: Кате Захаровой прочат блестящее музыкальное будущее. Но в один день все ее мечты рушатся, как карточный домик. В результате ... 9.6 10 16
Info! Золотая раздача, скачанное не засчитывается.
Торрент: Зарегистрирован [2014-05-02 15:10] · скачан: 391 раз
Статус: √ проверено
Размер: 5 GB
Как cкачать? Как скачать Врачиха через торрент | qTorrent

28-11-2019 20:33  

Отключить всю рекламу на сайте

    Дорогой пользователь! Огромная просьба, поблагодарите релизера, оцените раздачу и оставьте свои комментарий, если Вы скачали Врачиха через торрент бесплатно! Внесите свою лепту в развитие PiratBit!
    Комментировать посты могут только пользователи прошедшие не сложную регистрацию
    Показать сообщения:    

    Врачиха через торрент
    Скачать бесплатно Врачиха
    Врачиха скачать торрент
    Врачиха смотреть онлайн
    Cкачать фильм Врачиха бесплатно
    Врачиха скачать торрент в хорошем качестве
    Врачиха смотреть онлайн бесплатно в хорошем качестве


    Вы не можете начинать темы
    Вы не можете отвечать на сообщения
    Вы не можете редактировать свои сообщения
    Вы не можете удалять свои сообщения
    Вы не можете голосовать в опросах
    Вы не можете прикреплять файлы к сообщениям
    Вы можете скачивать файлы