Достать ножи: Стеклянная луковица

MVO

Добыча

Дубляж

Уэнсдэй

1 сезон

Тор

Дубляж

13 клиническая

1 сезон

Жестокая ночь

MVO

Одни из нас

1 сезон

Deluxe

pack

Рекомендуем

30

Пиратка

ВАЖНО

ВАЖНО

Ghostwire

Пиратка

jed

RePack

nioh2

RePack

RDR2

RePack

NEED FOR SPEED™ PAYBACK

RePack

скачать торрент

Кинопоиск HD

Острые козырьки 6 сезон

6 сезон

FAR CRY 6

RePack

скачать торрент

Лицензия

скачать торрент

MVO

1

1 сезон

скачать торрент

1 сезон

скачать торрент

Лицензия

  

Отряд особого назначения (Вадим Лысенко) [1978 г., Приключения, Военный, DVDRip]

Отряд особого назначения через торрент pb.wtf

Размер: 1.36 GB | Добавлен: 8 лет 9 мес. назад | Торрент скачан:63 раза
Смотреть онлайн | Скачать | Поддержите нас   

01-05-2014 18:30 Отряд особого назначения Скачать торрент  

Отряд особого назначенияГод выпуска: 1978
Страна: СССР Одесская Киностудия
Жанр: Приключения, Военный
Продолжительность: 01:12:54
Режиссер: Вадим Лысенко
Сценарий: Василий Решетников, Рудольф Отколенко

Премьера в мире: 13 февраля 1979


В ролях: Леонхард Мерзин, Павел Ремезов, Леонид Шумский, Улдис Пуцитис, Элгуджа Бурдули, Сергей Иванов, Марина Трошина, Улдис Лиелдидж, Юрий Пузырев, Ольгерт Кродерс, Александр Тартышников, Юрий Муравицкий, Валерий Полетаев, Борис Руднев, Марина Самойлова, Аркадий Свидерский, Марк Толмачев, Олег Федулов, Валерий Иняткин

Описание: Штурмовая группа из спортсменов, умеющих снайперски стрелять, бегать, прыгать, свободно чувствовать себя в воде и под водой, выдерживать чудовищную нагрузку рукопашных схваток, сможет добраться до цели только идя вместе, передавая задание как эстафету. Их семеро. Среди них девушка – пловчиха. Ей предстоит самый сложный, последний этап пути. В основе сюжета реальные факты Великой отечественной войны
Качество: DVDRip
Формат: AVI
Видео кодек: XviD
Аудио кодек: AC3
Видео: Xvid 704x304, 25.00fps, 2 218 Kbps
Аудио: Dolby AC3, 48000Hz, 6ch, 448kbps
Релиз от: Заур05






General
Complete name : I:\01 08 2012\Otrjad.osobogo.naznachenija.1978.XviD.DVDRip.Kinozal.TV.avi
Format : AVI
Format/Info : Audio Video Interleave
File size : 1.36 GiB
Duration : 1h 12mn
Overall bit rate : 2 673 Kbps
Writing application : VirtualDubMod 1.5.10.2 (build 2540/release)
Writing library : VirtualDubMod build 2540/release

Video
ID : 0
Format : MPEG-4 Visual
Format profile : Advanced [email protected]
Format settings, BVOP : 2
Format settings, QPel : No
Format settings, GMC : No warppoints
Format settings, Matrix : Default (MPEG)
Muxing mode : Packed bitstream
Codec ID : XVID
Codec ID/Hint : XviD
Duration : 1h 12mn
Bit rate : 2 218 Kbps
Width : 704 pixels
Height : 304 pixels
Display aspect ratio : 2.35:1
Frame rate : 25.000 fps
Color space : YUV
Chroma subsampling : 4:2:0
Bit depth : 8 bits
Scan type : Progressive
Compression mode : Lossy
Bits/(Pixel*Frame) : 0.415
Stream size : 1.13 GiB (83%)
Writing library : XviD 1.2.0.dev47 (UTC 2006-11-01)

Audio
ID : 1
Format : AC-3
Format/Info : Audio Coding 3
Mode extension : CM (complete main)
Codec ID : 2000
Duration : 1h 12mn
Bit rate mode : Constant
Bit rate : 448 Kbps
Channel(s) : 6 channels
Channel positions : Front: L C R, Side: L R, LFE
Sampling rate : 48.0 KHz
Bit depth : 16 bits
Compression mode : Lossy
Stream size : 232 MiB (17%)
Alignment : Split accross interleaves
Interleave, duration : 40 ms (1.01 video frame)
Interleave, preload duration : 500 ms




Скачать Отряд особого назначения через торрент https://pic1.kartinco.top/images/61/5ztlf.jpg Скачать, смотреть онлайн Отряд особого назначения бесплантно в хорошем качестве Описание: Штурмовая группа из спортсменов, умеющих снайперски стрелять, бегать, прыгать, свободно чувствовать себя в воде и под водой, ... 10 10 9
Info! Золотая раздача, скачанное не засчитывается.
Торрент: Зарегистрирован [2014-05-01 18:50] · скачан: 63 раз
Статус: √ проверено
Размер: 1.36 GB
Как cкачать? Как скачать Отряд особого назначения через торрент | UTorrent

28-11-2019 20:33  


Отключить вcю реклaмy на сайте, в т.ч. и в плеере онлайн просмотра!

    Дорогой пользователь! Огромная просьба, поблагодарите релизера, оцените раздачу и оставьте свои комментарий, если Вы скачали Отряд особого назначения через торрент бесплатно!!
    Комментировать посты могут только пользователи прошедшие не сложную регистрацию
    Показать сообщения:    


    Отряд особого назначения через торрент
    Скачать бесплатно Отряд особого назначения
    Отряд особого назначения скачать торрент
    Отряд особого назначения смотреть онлайн
    Cкачать фильм Отряд особого назначения бесплатно
    Отряд особого назначения скачать торрент в хорошем качестве
    Отряд особого назначения смотреть онлайн бесплатно в хорошем качестве
    Вы не можете начинать темы
    Вы не можете отвечать на сообщения
    Вы не можете редактировать свои сообщения
    Вы не можете удалять свои сообщения
    Вы не можете голосовать в опросах
    Вы не можете прикреплять файлы к сообщениям
    Вы можете скачивать файлы
    Отряд особого назначения [1978 г., Приключения, Военный, DVDRip] смотреть онлайн, скачать торрент picoco.icu