новый адрес пиратбит piratbit
Мега распродажа FORZA HORIZON 4 ULTIMATE+ВСЕ DLC+ОНЛАЙН всего за 499р. 349 руб. (супер цена). Внимание количество ограничено!!!

iTunes

1+1

iTunes

мы

iTunes

1

iTunes

Чернобыль

iTunes

Ральф против интернета

Лицензия

ПШазам

Лицензия

Игра престолов

Лицензия

30
pack

ВАЖНО

!!Акция!!

Alien_RageХит недели

RePack

Resident Evil 21

ИГРА 18+

pack

RePack

Metro:Exodus

!!Акция!!

Alien_Rage

RePack

fifa19

RePack

Assassins Creed: Odyssey

RePack

NEED FOR SPEED™ PAYBACK

3 сезон

9 сезон

Бесстыжие 9 сезон

Все сериалы

все сериалы на PB.wtf

RePack

FAR CRY 5
Ребята, катастрофически не хватает 1900р. для оплаты серверов за Октябрь (всвязи с блокировками трафик упал в 3 раза), 1-2р., выручайте.
  

Отряд особого назначения (Вадим Лысенко) [1978 г., Приключения, Военный, DVDRip] pb.wtf

Отряд особого назначения через торрент pb.wtf

Размер: 1.36 GB | Добавлен: 5 лет 6 мес. назад | Торрент скачан:63 раза
Скачать  

01-05-2014 18:30 Отряд особого назначения Скачать торрент  

Отряд особого назначенияГод выпуска: 1978
Страна: СССР Одесская Киностудия
Жанр: Приключения, Военный
Продолжительность: 01:12:54
Режиссер: Вадим Лысенко
Сценарий: Василий Решетников, Рудольф Отколенко

Премьера в мире: 13 февраля 1979


В ролях: Леонхард Мерзин, Павел Ремезов, Леонид Шумский, Улдис Пуцитис, Элгуджа Бурдули, Сергей Иванов, Марина Трошина, Улдис Лиелдидж, Юрий Пузырев, Ольгерт Кродерс, Александр Тартышников, Юрий Муравицкий, Валерий Полетаев, Борис Руднев, Марина Самойлова, Аркадий Свидерский, Марк Толмачев, Олег Федулов, Валерий Иняткин

Описание: Штурмовая группа из спортсменов, умеющих снайперски стрелять, бегать, прыгать, свободно чувствовать себя в воде и под водой, выдерживать чудовищную нагрузку рукопашных схваток, сможет добраться до цели только идя вместе, передавая задание как эстафету. Их семеро. Среди них девушка – пловчиха. Ей предстоит самый сложный, последний этап пути. В основе сюжета реальные факты Великой отечественной войны
Качество: DVDRip
Формат: AVI
Видео кодек: XviD
Аудио кодек: AC3
Видео: Xvid 704x304, 25.00fps, 2 218 Kbps
Аудио: Dolby AC3, 48000Hz, 6ch, 448kbps
Релиз от: Заур05






General
Complete name : I:\01 08 2012\Otrjad.osobogo.naznachenija.1978.XviD.DVDRip.Kinozal.TV.avi
Format : AVI
Format/Info : Audio Video Interleave
File size : 1.36 GiB
Duration : 1h 12mn
Overall bit rate : 2 673 Kbps
Writing application : VirtualDubMod 1.5.10.2 (build 2540/release)
Writing library : VirtualDubMod build 2540/release

Video
ID : 0
Format : MPEG-4 Visual
Format profile : Advanced Simple@L5
Format settings, BVOP : 2
Format settings, QPel : No
Format settings, GMC : No warppoints
Format settings, Matrix : Default (MPEG)
Muxing mode : Packed bitstream
Codec ID : XVID
Codec ID/Hint : XviD
Duration : 1h 12mn
Bit rate : 2 218 Kbps
Width : 704 pixels
Height : 304 pixels
Display aspect ratio : 2.35:1
Frame rate : 25.000 fps
Color space : YUV
Chroma subsampling : 4:2:0
Bit depth : 8 bits
Scan type : Progressive
Compression mode : Lossy
Bits/(Pixel*Frame) : 0.415
Stream size : 1.13 GiB (83%)
Writing library : XviD 1.2.0.dev47 (UTC 2006-11-01)

Audio
ID : 1
Format : AC-3
Format/Info : Audio Coding 3
Mode extension : CM (complete main)
Codec ID : 2000
Duration : 1h 12mn
Bit rate mode : Constant
Bit rate : 448 Kbps
Channel(s) : 6 channels
Channel positions : Front: L C R, Side: L R, LFE
Sampling rate : 48.0 KHz
Bit depth : 16 bits
Compression mode : Lossy
Stream size : 232 MiB (17%)
Alignment : Split accross interleaves
Interleave, duration : 40 ms (1.01 video frame)
Interleave, preload duration : 500 ms

pb.wtf



Скачать Отряд особого назначения через торрент http://pic.kartinco.top/images/6/5ztlf.jpg Скачать фильм Отряд особого назначения через торрент бесплантно в хорошем качестве Описание: Штурмовая группа из спортсменов, умеющих снайперски стрелять, бегать, прыгать, свободно чувствовать себя в воде и под водой, ... 10 10 9
Info! Золотая раздача, скачанное не засчитывается.
Торрент: Зарегистрирован [2014-05-01 18:50] · скачан: 63 раз
Статус: √ проверено
Размер: 1.36 GB
Как cкачать? Как скачать Отряд особого назначения через торрент | qTorrent

% Раздел Тема Автор DL S | L
Фильмы с авторской озвучкой [ 5.69 GB ] Особое задание / Mi ni te gong dui [1983 BDRip 1080p HEVC DVO+4хAVO] Мичман37 Скачать
1 | 0
Фильмы [HD 720p, 1080p] (Хороший звук DUB, MVO) [ 3.67 GB ] Отряд особого назначения / Forces spéciales [2011 BDRip 1080p HEVC ] ADVOKAT69 Скачать
1 | 0
Фильмы 2011 [ 1.42 GB ] Отряд особого назначения / Forces speciales [2011 военный BDRip DUB лицензия] Sудья Скачать
1 | 0
Фильмы [HD 720p, 1080p] (Хороший звук DUB, MVO) [ 10.67 GB ] Отряд особого назначения / Forces speciales [2011 BDRip DUB ] ~Relizer~ Скачать
1 | 0
Фильмы 2011 [ 2.18 GB ] Отряд особого назначени я / Fоrces speciales [2011 BDRip лицензия] makarevich Скачать
1 | 0
Фильмы (DVD фильмы) [ 3.99 GB ] Отряд особого назначения / Forces speciales [2011 DVD5] R5 voovaz Скачать
1 | 0
Фильмы 2011 [ 2.21 GB ] Отряд особого назначения / Forces spéciales [2011 BDRip-AVC от HQ-ViDEO] ~Relizer~ Скачать
1 | 0


>> Регистрируемся здесь <<






Отзывы и комментарии о схеме читаем и пишем здесь: ---> Отзывы и комментарии о схеме

Новые благодарочки в телеграм довольных пользователей:
скриншот   скриншот   скриншот   скриншот   скриншот
    Дорогой пользователь! Огромная просьба, поблагодарите релизера, оцените раздачу и оставьте свои комментарий, если Вы скачали Отряд особого назначения через торрент бесплатно! Внесите свою лепту в развитие PiratBit!
    Комментировать посты могут только пользователи прошедшие не сложную регистрацию
    Показать сообщения:    

    Отряд особого назначения через торрент
    Скачать бесплатно Отряд особого назначения
    Отряд особого назначения скачать торрент
    Отряд особого назначения смотреть онлайн
    Cкачать фильм Отряд особого назначения бесплатно
    Отряд особого назначения скачать торрент в хорошем качестве
    Отряд особого назначения смотреть онлайн бесплатно в хорошем качестве


    Вы не можете начинать темы
    Вы не можете отвечать на сообщения
    Вы не можете редактировать свои сообщения
    Вы не можете удалять свои сообщения
    Вы не можете голосовать в опросах
    Вы не можете прикреплять файлы к сообщениям
    Вы можете скачивать файлы