2 сезон

iTunes

1 сезон

1

iTunes

iTunes

iTunes

1 сезон

RePack

30

ИГРА 18+

pack

ВАЖНО

!!Акция!!

Alien_RageХит недели

RePack

MK11
pack

Забери бонус

RePack

jed

!!Акция!!

Alien_Rage

RePack

fifa19

RePack

Assassins Creed: Odyssey

RePack

NEED FOR SPEED™ PAYBACK

4 сезон

9 сезон

Бесстыжие 9 сезон

Все сериалы

все сериалы на PB.wtf

RePack

FAR CRY 5
  

Черный рыцарь / Black Knight (Джил Джангер / Gil Junger) [2001, США, фэнтези, комедия, приключения, BDRip 1080p,Профессиональный (многоголосый, закадровый) pb.wtf

Черный рыцарь через торрент pb.wtf

Размер: 5.75 GB | Добавлен: 6 лет 5 мес. назад | Торрент скачан:20 раз
Скачать  

01-05-2014 21:02 Черный рыцарь Скачать торрент  

Черный рыцарь / Black Knight

Год выпуска: 2001
Страна: США
Жанр: фэнтези, комедия, приключения
Продолжительность: 01:35:37
Перевод: Профессиональный (многоголосый, закадровый)
Субтитры: Russian (UTF-8), English (UTF-8)
Режиссер: Джил Джангер / Gil Junger
В ролях: Мартин Лоуренс (Jamal Walker, Skywalker,), Марша Томасон (Victoria the Chambermaid, Nicole), Том Уилкинсон (Sir Knolte of Marlborough), Винсент Риган (Percival, Leo's Chief Henchman), Майкл Кантримэн (Phillip, Leo's Chamberlain), Кевин Конуэй (King Leo), Джаннетт Вигар (Princess Regina, Leo's Daughter), Эрик Дженсен (Derek), Дикран Тулейн (Dennis), Хелен Кэри (The Queen), Майкл Бёрджесс (Ernie), Изабелл Монк (Mrs. Bostick, «Medieval World» Owner)
Описание:
Был обычный летний день. Джамал, как обычно, чистил ров в городском парке развлечений «Средневековый мир». Но судьба уже готовила ему самое веселое и безумное приключение в его жизни...
Случайно перевернувшись через перила моста, Джамал падает в воду и выныривает в Средневековой Англии! Принятый за посла из Нормандии из-за странной одежды и манеры говорить, он знакомится с очаровательной заговорщицей, которая хочет свергнуть короля-тирана.
Затянутый в заговор, Джамал между делом планирует открытие сети ресторанов быстрого питания, соблазняет дочку короля и запугивает до смерти всех горожан своими «колдовскими» способностями...
Рейтинг
kinopoisk.ru: 6.572 (11 636)
imdb.com: 4.60 (24 618)
MPAA: PG-13 - Детям до 13 лет просмотр не желателен
Качество: BDRip 1080p
Формат: MKV
Видео кодек: AVC
Аудио кодек: AC3
Видео: AVC, 1920x816 (2.35:1), 7595 kbps, 23,976 fps, 0,202 bpp
Аудио №1: русский / AC3 / 5.1 / 48 kHz / 384 kbps / 16 bit |Русский(MBO)|
Аудио №2: английский / AC3 / 5.1 / 48 kHz / 640 kbps / 16 bit Original English
Релиз от: ஐ-Best is the Best-ஐ
Общее
Уникальный идентификатор : 173350089171642206637281570259330774328 (0x826A034439B0F86492580972594DB538)
Полное имя : F:\Chernyi.Rycar.2001.BDRp.1080p.mkv
Формат : Matroska
Версия формата : Version 4 / Version 2
Размер файла : 5,75 Гбайт
Продолжительность : 1 ч. 35 м.
Общий поток : 8608 Кбит/сек
Дата кодирования : UTC 2013-05-26 07:40:00
Программа кодирования : mkvmerge v6.1.0 ('Old Devil') built on Mar 2 2013 14:32:37
Библиотека кодирования : libebml v1.3.0 + libmatroska v1.4.0

Видео
Идентификатор : 1
Формат : AVC
Формат/Информация : Advanced Video Codec
Профиль формата : High@L4.1
Параметр CABAC формата : Да
Параметр ReFrames формата : 4 кадра
Идентификатор кодека : V_MPEG4/ISO/AVC
Продолжительность : 1 ч. 35 м.
Битрейт : 7595 Кбит/сек
Ширина : 1920 пикселей
Высота : 816 пикселей
Соотношение сторон : 2,35:1
Режим частоты кадров : Постоянный
Частота кадров : 23,976 кадра/сек
Цветовое пространство : YUV
Субдискретизация насыщенности : 4:2:0
Битовая глубина : 8 бит
Тип развёртки : Прогрессивная
Бит/(Пиксели*Кадры) : 0.202
Размер потока : 4,95 Гбайт (86%)
Библиотека кодирования : x264 core 133 r2334 a3ac64b
Настройки программы : cabac=1 / ref=4 / deblock=1:-1:-1 / analyse=0x3:0x133 / me=umh / subme=10 / psy=1 / psy_rd=1.00:0.00 / mixed_ref=1 / me_range=32 / chroma_me=1 / trellis=2 / 8x8dct=1 / cqm=0 / deadzone=21,11 / fast_pskip=0 / chroma_qp_offset=-2 / threads=6 / lookahead_threads=1 / sliced_threads=0 / nr=0 / decimate=1 / interlaced=0 / bluray_compat=0 / constrained_intra=0 / bframes=8 / b_pyramid=2 / b_adapt=2 / b_bias=0 / direct=3 / weightb=1 / open_gop=0 / weightp=2 / keyint=240 / keyint_min=24 / scenecut=40 / intra_refresh=0 / rc=2pass / mbtree=0 / bitrate=7595 / ratetol=2.0 / qcomp=1.00 / qpmin=0 / qpmax=51 / qpstep=4 / cplxblur=20.0 / qblur=0.5 / ip_ratio=1.40 / pb_ratio=1.30 / aq=1:1.00
Язык : English
Default : Да
Forced : Нет
Основные цвета : BT.709
Характеристики трансфера : BT.709
Коэффициенты матрицы : BT.709

Аудио #1
Идентификатор : 2
Формат : AC-3
Формат/Информация : Audio Coding 3
Расширение режима : CM (complete main)
Параметр Endianness формата : Big
Идентификатор кодека : A_AC3
Продолжительность : 1 ч. 35 м.
Вид битрейта : Постоянный
Битрейт : 384 Кбит/сек
Каналы : 6 каналов
Расположение каналов : Front: L C R, Side: L R, LFE
Частота : 48,0 КГц
Битовая глубина : 16 бит
Метод сжатия : С потерями
Размер потока : 263 Мбайт (4%)
Заголовок : - MVO -
Язык : Russian
Default : Да
Forced : Да

Аудио #2
Идентификатор : 3
Формат : AC-3
Формат/Информация : Audio Coding 3
Расширение режима : CM (complete main)
Параметр Endianness формата : Big
Идентификатор кодека : A_AC3
Продолжительность : 1 ч. 35 м.
Вид битрейта : Постоянный
Битрейт : 640 Кбит/сек
Каналы : 6 каналов
Расположение каналов : Front: L C R, Side: L R, LFE
Частота : 48,0 КГц
Битовая глубина : 16 бит
Метод сжатия : С потерями
Размер потока : 438 Мбайт (7%)
Язык : English
Default : Нет
Forced : Нет

Текст #1
Идентификатор : 4
Формат : UTF-8
Идентификатор кодека : S_TEXT/UTF8
Идентификатор кодека/Информация : UTF-8 Plain Text
Язык : Russian
Default : Нет
Forced : Нет

Текст #2
Идентификатор : 5
Формат : UTF-8
Идентификатор кодека : S_TEXT/UTF8
Идентификатор кодека/Информация : UTF-8 Plain Text
Язык : English
Default : Нет
Forced : Нет

Меню
00:00:00.000 : :Chapter 01
00:09:19.934 : :Chapter 02
00:18:25.771 : :Chapter 03
00:29:46.117 : :Chapter 04
00:39:44.882 : :Chapter 05
00:50:03.041 : :Chapter 06
00:59:31.943 : :Chapter 07
01:09:48.934 : :Chapter 08
01:20:29.574 : :Chapter 09
01:28:38.062 : :Chapter 10
01:35:37.481 : :Chapter 11
pb.wtf



Скачать Черный рыцарь через торрент http://pic.kartinco.top/new/img/2014-05/04/xl17x9i9qatz5mnh34okgdy6h.png Скачать фильм Черный рыцарь через торрент бесплантно в хорошем качестве Описание: Был обычный летний день. Джамал, как обычно, чистил ров в городском парке развлечений «Средневековый мир». Но судьба уже готовила ... 10 10 8
Info! Золотая раздача, скачанное не засчитывается.
Торрент: Зарегистрирован [2014-05-01 21:02] · скачан: 20 раз
Статус: √ проверено
Размер: 5.75 GB
Как cкачать? Как скачать Черный рыцарь через торрент | qTorrent

% Раздел Тема Автор DL S | L
Фильмы (HD 720p, 1080p) (48-60 fps) [ 3.14 GB ] Черный рыцарь / Black Knight [2001 BDRip 720p / 60 FPS ] от R.G. HD-Films slaventi-69 Скачать
4 | 0
Фильмы [HD 720p, 1080p] (Хороший звук DUB, MVO) [ 4.96 GB ] Черный рыцарь / Black Knight [2001 BDRip 720p] [MVO] + [AVO] killermax2013 Скачать
1 | 0
Фильмы 2001-2005 [ 1.45 GB ] Чёрный рыцарь / Black knight [2001 DVDRip-AVC] MVO + AVO killermax2013 Скачать
1 | 0
Фильмы 2001-2005 [ 1.36 GB ] Черный рыцарь / Black Knight [2001 DVDRip] Andruuha Скачать
2 | 0
Фильмы 2001-2005 [ 1.37 GB ] Черный рыцарь / Black Knight [2001 HDTV] Virtus Скачать
1 | 0

28-11-2019 20:33  

Отключить всю рекламу на сайте

    Дорогой пользователь! Огромная просьба, поблагодарите релизера, оцените раздачу и оставьте свои комментарий, если Вы скачали Черный рыцарь через торрент бесплатно! Внесите свою лепту в развитие PiratBit!
    Комментировать посты могут только пользователи прошедшие не сложную регистрацию
    Показать сообщения:    

    Черный рыцарь через торрент
    Скачать бесплатно Черный рыцарь
    Черный рыцарь скачать торрент
    Черный рыцарь смотреть онлайн
    Cкачать фильм Черный рыцарь бесплатно
    Черный рыцарь скачать торрент в хорошем качестве
    Черный рыцарь смотреть онлайн бесплатно в хорошем качестве


    Вы не можете начинать темы
    Вы не можете отвечать на сообщения
    Вы не можете редактировать свои сообщения
    Вы не можете удалять свои сообщения
    Вы не можете голосовать в опросах
    Вы не можете прикреплять файлы к сообщениям
    Вы можете скачивать файлы