Мега распродажа FORZA HORIZON 4 ULTIMATE+ВСЕ DLC+ОНЛАЙН всего за 499р. 349 руб. (супер цена). Внимание количество ограничено!!!

iTunes

1+1

iTunes

мы

iTunes

1

1 сезон

Чернобыль

1 сезон

Ральф против интернета

Лицензия

ПШазам

8 сезон

Игра престолов

Лицензия

30
pack

ВАЖНО

!!Акция!!

Alien_RageХит недели

RePack

Resident Evil 21

ИГРА 18+

pack

RePack

Metro:Exodus

!!Акция!!

Alien_Rage

RePack

fifa19

RePack

Assassins Creed: Odyssey

RePack

NEED FOR SPEED™ PAYBACK

3 сезон

9 сезон

Бесстыжие 9 сезон

Все сериалы

все сериалы на PB.wtf

RePack

FAR CRY 5
Ребята, катастрофически не хватает 2730р. для оплаты серверов за ИЮНЬ (всвязи с блокировками трафик упал в 3 раза), 1-2р., выручайте.
  

1001 / Сезон: 1 / Серии 1-4 из ?? (Александр Котт) [ 2014 , Россия , мелодрама, фантастика , SATRip ] pb.wtf

1001 через торрент pb.wtf

Размер: 2.4 GB | Добавлен: 5 лет 2 мес. назад | Торрент скачан:100 раз
Скачать  

02-05-2014 05:59 1001 Скачать торрент  

1001
Год выпуска: 2014
Страна: Россия
Жанр: мелодрама, фантастика
Продолжительность: ~00:48:05 (Серия)
Перевод: Не требуется
Субтитры: Нет
Режиссер: Александр Котт
Сценарий: Анна Козлова
Оператор: Эдуард Мельников
Композитор: Антон Шварц
В ролях:
Саёра Сафари, Алексей Франдетти, Александр Голубков, Ёла Санько, Рамиль Сабитов, Нодар Сирадзе
Описание:
Действие фильма разворачивается в двух условных «мирах», разделенных символическими воротами. Мир первый - современность, 21 век, где жизнь бьет ключом. Мир второй - некое «волшебное» пространство сказки со всеми присущими ей атрибутами - роскошными дворцами, удивительными одеждами, гаремами, интригами и волшебниками.
Качество: SATRip
Формат: AVI
Видео кодек: DivX 5
Аудио кодек: MP3
Видео: 1800 Кбит/сек, 720*448 (16:10), в 25,000 кадров/сек, MPEG-4 Visual (DivX 5)
Аудио: 128 Кбит/сек, 48,0 КГц, 2 канала, MPEG Audio (MP3) Раздача ведётся путём добавления новых серийДобалена 3,4 серия (09.05.2014)Просьба перекачать торрент файл

Внимание! Раздача ведётся путём добавления новых серий; при каждом добавлении создётся новый торрент. Чтобы начать докачку новой серии, пользователям необходимо сделать следующее:
(1) остановить скачивание,
(2) удалить старый торрент у себя из клиента (старые серии удалять не надо),
(3) скачать новый торрент и запустить его у себя в клиенте вместо старого, при этом указать клиенту путь в старую папку куда и должно происходить скачивание новых серий.
Ваш клиент при этом должен произвести хеширование (проверку) старой папки (если не производит сам - помогите ему сделать это), и будет докачивать только те серии которых у вас ещё нет. Старые серии при этом не удаляются, а продолжают раздаваться!
Eсли вы уже удалили старые серии, то предотвратить повторную закачку старых серий можно, отжав галочку в соответсвующих местах при запуске нового торрента. По возможности, желательно не удалять старые серии как можно дольше чтобы релизёр не столько продолжал раздавать старые серии, а смог сконцентрироваться на новых.

Общее
Полное имя : H:\ТОРРЕНТЫ\1001\Сетия_001.avi
Формат : AVI
Формат/Информация : Audio Video Interleave
Размер файла : 667 Мбайт
Продолжительность : 48 м.
Общий поток : 1938 Кбит/сек
Библиотека кодирования : VirtualDub build 35491/release

Видео
Идентификатор : 0
Формат : MPEG-4 Visual
Параметр BVOP формата : 1
Параметр QPel формата : Нет
Параметр GMC формата : Без точки перехода
Параметр матрицы формата : Default (H.263)
Режим смешивания : Сжатый битовый поток
Идентификатор кодека : DX50
Идентификатор кодека/Подсказка : DivX 5
Продолжительность : 48 м.
Битрейт : 1800 Кбит/сек
Ширина : 720 пикселей
Высота : 448 пикселей
Соотношение сторон : 16:10
Частота кадров : 25,000 кадров/сек
Цветовое пространство : YUV
Субдискретизация насыщенности : 4:2:0
Битовая глубина : 8 бит
Тип развёртки : Прогрессивная
Метод сжатия : С потерями
Бит/(Пиксели*Кадры) : 0.223
Размер потока : 619 Мбайт (93%)
Библиотека кодирования : DivX 6.8.5 (UTC 2009-08-20)

Аудио
Идентификатор : 1
Формат : MPEG Audio
Версия формата : Version 1
Профиль формата : Layer 3
Режим : Joint stereo
Расширение режима : MS Stereo
Идентификатор кодека : 55
Идентификатор кодека/Подсказка : MP3
Продолжительность : 48 м.
Вид битрейта : Постоянный
Битрейт : 128 Кбит/сек
Каналы : 2 канала
Частота : 48,0 КГц
Метод сжатия : С потерями
Размер потока : 44,0 Мбайт (7%)
Выравнивание : Разделение по промежуткам
Продолжительность промежутка : 40 мс. (1,00 видеокадр)
Время предзагрузки промежутка : 500 мс.

скриншот   скриншот   скриншот   скриншот   скриншот   скриншот   скриншот   скриншот   скриншот   скриншот  

pb.wtf



Скачать 1001 через торрент http://i56.fastpic.ru/big/2014/0502/f6/313ac0f3face4fb6bbe466d5c5cb48f6.jpg Скачать фильм 1001 через торрент бесплантно в хорошем качестве Описание:Действие фильма разворачивается в двух условных «мирах», разделенных символическими воротами. Мир первый - современность, 21 век, ... 10 10 8
Торрент: Зарегистрирован [2014-05-09 04:06] · скачан: 100 раз
Статус: √ проверено
Размер: 2.4 GB
Как cкачать? Как скачать 1001 через торрент | qTorrent



Последний раз редактировалось: GEKADOL (2014-05-09 04:06), всего редактировалось 2 раз(а)


>> Регистрируемся здесь <<






Отзывы и комментарии о схеме читаем и пишем здесь: ---> Отзывы и комментарии о схеме

Новые благодарочки в телеграм довольных пользователей:
скриншот   скриншот   скриншот   скриншот   скриншот

02-05-2014 06:45 1001 Скачать торрент  

как начало сериала? отпишитесь.pb.wtf



    Дорогой пользователь! Огромная просьба, поблагодарите релизера, оцените раздачу и оставьте свои комментарий, если Вы скачали 1001 через торрент бесплатно! Внесите свою лепту в развитие PiratBit!
    Комментировать посты могут только пользователи прошедшие не сложную регистрацию
    Показать сообщения:    

    1001 через торрент
    Скачать бесплатно 1001
    1001 скачать торрент
    1001 смотреть онлайн
    Cкачать фильм 1001 бесплатно
    1001 скачать торрент в хорошем качестве
    1001 смотреть онлайн бесплатно в хорошем качестве


    Вы не можете начинать темы
    Вы не можете отвечать на сообщения
    Вы не можете редактировать свои сообщения
    Вы не можете удалять свои сообщения
    Вы не можете голосовать в опросах
    Вы не можете прикреплять файлы к сообщениям
    Вы можете скачивать файлы