новый адрес пиратбит piratbit
Мега распродажа FORZA HORIZON 4 ULTIMATE+ВСЕ DLC+ОНЛАЙН всего за 499р. 349 руб. (супер цена). Внимание количество ограничено!!!

iTunes

1+1

iTunes

мы

iTunes

1

iTunes

Чернобыль

iTunes

Ральф против интернета

Лицензия

ПШазам

Лицензия

Игра престолов

Лицензия

30
pack

ВАЖНО

!!Акция!!

Alien_RageХит недели

RePack

Resident Evil 21

ИГРА 18+

pack

RePack

Metro:Exodus

!!Акция!!

Alien_Rage

RePack

fifa19

RePack

Assassins Creed: Odyssey

RePack

NEED FOR SPEED™ PAYBACK

3 сезон

9 сезон

Бесстыжие 9 сезон

Все сериалы

все сериалы на PB.wtf

RePack

FAR CRY 5
Ребята, катастрофически не хватает 1900р. для оплаты серверов за Октябрь (всвязи с блокировками трафик упал в 3 раза), 1-2р., выручайте.
  

Тегеран-43 / Серии 1-2 из 2 (Александр Алов, Владимир Наумов) [1980 г., Боевик, триллер, драма, мелодрама, криминал, военный, DVDRip] pb.wtf

Тегеран-43 через торрент pb.wtf

Размер: 2.05 GB | Добавлен: 5 лет 6 мес. назад | Торрент скачан:44 раза
Скачать  

02-05-2014 13:05 Тегеран-43 Скачать торрент  

Тегеран-43Год выпуска: 1980
Страна: СССР , Швейцария , Франция Mediterraneo Cine, Мосфильм, Pro Dis Film AG
Жанр: Боевик, триллер, драма, мелодрама, криминал, военный
Продолжительность: 2 x ~ 01:14:00
Режиссер: Александр Алов, Владимир Наумов
Сценарий: Александр Алов, Владимир Наумов, Михаил Шатров

Премьера в мире: 8 июля 1981

В ролях: Наталья Белохвостикова, Игорь Костолевский, Армен Джигарханян, Клод Жад, Ален Делон, Курд Юргенс, Альберт Филозов, Жорж Жере, Глеб Стриженов, Николай Гринько, Всеволод Санаев, Нартай Бегалин, Майк Маршалл, Джесс Хан, Эвелин Крафт, Жак Ру, Елена Добронравова, Наталья Наумова, Игорь Класс, Владимир Басов, Ашот Акопян, Руслан Микаберидзе, Баадур Цуладзе, Александр Январёв, Андрей Юренев, Чеслав Сушкевич, Олег Фёдоров, Даниэль Дарно, Вацлав Дворжецкий
Описание: Во время тегеранской конференции готовится убийство руководителей держав-противников Германии во Второй Мировой войне — Иосифа Сталина, Франклина Рузвельта и Уинстона Черчилля. Но основное действие фильма происходит в наши дни. Бывшие непосредственные участники событий — и даже их дети — как бы заново переживают минувшее, но не для всех эти воспоминания заканчиваются благополучно.
Качество: DVDRip
Формат: AVI
Видео кодек: DivX
Аудио кодек: AC3
Видео: DivX 5, 688x496, 25.00fps, 1 527 Kbps
Аудио: Dolby AC3, 48000Hz, 6ch, 448kbps
Релиз от: maxer101





General
Complete name : D:\Tegeran-43.(2.serii.iz.2).1980.DivX.DVDRip.BestVideo\Tegeran-43.01.iz.02.1980.DivX.DVDRip.BestVideo.avi
Format : AVI
Format/Info : Audio Video Interleave
File size : 1.02 GiB
Duration : 1h 13mn
Overall bit rate : 1 985 Kbps
Writing application : FairUse Wizard - http://fairusewizard.com
Writing library : The best and REALLY easy backup tool

Video
ID : 0
Format : MPEG-4 Visual
Format settings, BVOP : 1
Format settings, QPel : No
Format settings, GMC : No warppoints
Format settings, Matrix : Default (H.263)
Muxing mode : Packed bitstream
Codec ID : DX50
Codec ID/Hint : DivX 5
Duration : 1h 13mn
Bit rate : 1 527 Kbps
Width : 688 pixels
Height : 496 pixels
Display aspect ratio : 1.387
Frame rate : 25.000 fps
Color space : YUV
Chroma subsampling : 4:2:0
Bit depth : 8 bits
Scan type : Progressive
Compression mode : Lossy
Bits/(Pixel*Frame) : 0.179
Stream size : 808 MiB (77%)
Writing library : DivX 6.2.5 (UTC 2006-07)

Audio
ID : 1
Format : AC-3
Format/Info : Audio Coding 3
Mode extension : CM (complete main)
Codec ID : 2000
Duration : 1h 13mn
Bit rate mode : Constant
Bit rate : 448 Kbps
Channel(s) : 6 channels
Channel positions : Front: L C R, Side: L R, LFE
Sampling rate : 48.0 KHz
Bit depth : 16 bits
Compression mode : Lossy
Stream size : 237 MiB (23%)
Alignment : Split accross interleaves
Interleave, duration : 40 ms (1.00 video frame)
Interleave, preload duration : 500 ms

pb.wtf



Скачать Тегеран-43 через торрент http://pic.kartinco.top/images/6/c2ew9.jpg Скачать фильм Тегеран-43 через торрент бесплантно в хорошем качестве Описание: Во время тегеранской конференции готовится убийство руководителей держав-противников Германии во Второй Мировой войне — Иосифа ... 10 10 7
Info! Золотая раздача, скачанное не засчитывается.
Торрент: Зарегистрирован [2014-05-02 13:05] · скачан: 44 раз
Статус: √ проверено
Размер: 2.05 GB
Как cкачать? Как скачать Тегеран-43 через торрент | qTorrent


>> Регистрируемся здесь <<






Отзывы и комментарии о схеме читаем и пишем здесь: ---> Отзывы и комментарии о схеме

Новые благодарочки в телеграм довольных пользователей:
скриншот   скриншот   скриншот   скриншот   скриншот

02-05-2014 16:18 Тегеран-43 Скачать торрент  

Фильм-супер!На все времена.Какие актёры!А какая музыка в фильме!.....pb.wtf



02-05-2014 17:30 Тегеран-43 Скачать торрент  

Stopper68 писал(а):

Фильм-супер!На все времена.Какие актёры!А какая музыка в фильме!.....

Соледарен на все 1000 pb.wtf



13-12-2014 15:51 Тегеран-43 Скачать торрент  

аж слёзы на глазах наворачиваются pb.wtf



    Дорогой пользователь! Огромная просьба, поблагодарите релизера, оцените раздачу и оставьте свои комментарий, если Вы скачали Тегеран-43 через торрент бесплатно! Внесите свою лепту в развитие PiratBit!
    Комментировать посты могут только пользователи прошедшие не сложную регистрацию
    Показать сообщения:    

    Тегеран-43 через торрент
    Скачать бесплатно Тегеран-43
    Тегеран-43 скачать торрент
    Тегеран-43 смотреть онлайн
    Cкачать фильм Тегеран-43 бесплатно
    Тегеран-43 скачать торрент в хорошем качестве
    Тегеран-43 смотреть онлайн бесплатно в хорошем качестве


    Вы не можете начинать темы
    Вы не можете отвечать на сообщения
    Вы не можете редактировать свои сообщения
    Вы не можете удалять свои сообщения
    Вы не можете голосовать в опросах
    Вы не можете прикреплять файлы к сообщениям
    Вы можете скачивать файлы