Мега распродажа FORZA HORIZON 4 ULTIMATE+ВСЕ DLC+ОНЛАЙН всего за 499р. 349 руб. (супер цена). Внимание количество ограничено!!!

iTunes

1+1

iTunes

мы

iTunes

1

1 сезон

Чернобыль

1 сезон

Ральф против интернета

Лицензия

ПШазам

8 сезон

Игра престолов

Лицензия

30
pack

ВАЖНО

!!Акция!!

Alien_RageХит недели

RePack

Resident Evil 21

ИГРА 18+

pack

RePack

Metro:Exodus

!!Акция!!

Alien_Rage

RePack

fifa19

RePack

Assassins Creed: Odyssey

RePack

NEED FOR SPEED™ PAYBACK

3 сезон

9 сезон

Бесстыжие 9 сезон

Все сериалы

все сериалы на PB.wtf

RePack

FAR CRY 5
Ребята, катастрофически не хватает 2730р. для оплаты серверов за ИЮНЬ (всвязи с блокировками трафик упал в 3 раза), 1-2р., выручайте.
  

Сестра моя, любовь / Серия 1-16 из 16 (Игорь Войтулевич) [2014 г., Мелодрама, SATRip] pb.wtf

Сестра моя, любовь через торрент pb.wtf

Размер: 8.33 GB | Добавлен: 5 лет 2 мес. назад | Торрент скачан:338 раз
Скачать  

02-05-2014 16:06 Сестра моя, любовь Скачать торрент  

Сестра моя любовьГод выпуска: 2014
Страна: Россия
Жанр: Мелодрама
Продолжительность: 44 Минкты серия

Режиссер: Игорь Войтулевич

В ролях: Елена Шилова (II), Игорь Бочкин, Леонид Громов, Татьяна Космачева, Алексей Анищенко, Дмитрий Ратомский, Анна Легчилова, Виолетта Давыдовская, Владимир Любовский, Людмила Гаврилова, Николай Шатохин

Описание: Люба, студентка медицинского института, теряет горячо любимую мать. Почти сразу на героиню обрушивается и другой удар: Люба узнаёт, что нерадивый папаша, гуляка и пьяница, ей неродной. В отчаянии осиротевшая девушка отправляется на поиски настоящего отца, о котором ей рассказала мамина подруга. Вопреки опасениям, отец и сводная сестра Катя тепло встречают ее и принимают в семью. К тому же в ее жизнь приходит любовь: новый знакомый Андрей настроен на серьезные отношения, и в мечтах Люба уже идет под венец.. Однако все планы рушит роковое стечение обстоятельств: Андрей оказывается женихом ее сестры..

Качество: SATRip
Формат: AVI
Видео кодек: DivX
Аудио кодек: MP3
Видео: MPEG4, DivX 5, 720x384 (1.875), 25.000 fps, 1 598 Kbps (0.231 bit/pixel)
Аудио: MP3, 48.0 KHz, 2 ch, 128 Kbps, CBR
скриншот   скриншот   скриншот   скриншот   скриншот   скриншот   скриншот   скриншот  

Код:

Формат                                   : AVI
Формат/Информация                        : Audio Video Interleave
Размер файла                             : 548 Мбайт
Продолжительность                        : 44 м.
Общий поток                              : 1737 Кбит/сек
Программа кодирования                    : VirtualDubMod 1.5.10.2 (build 2540/release)
Библиотека кодирования                   : VirtualDub build 29808/release

Видео
Идентификатор                            : 0
Формат                                   : MPEG-4 Visual
Параметр BVOP формата                    : Нет
Параметр QPel формата                    : Нет
Параметр GMC формата                     : Без точки перехода
Параметр матрицы формата                 : Default (H.263)
Идентификатор кодека                     : DX50
Идентификатор кодека/Подсказка           : DivX 5
Продолжительность                        : 44 м.
Битрейт                                  : 1599 Кбит/сек
Ширина                                   : 720 пикселей
Высота                                   : 384 пикселя
Соотношение сторон                       : 1,85:1
Частота кадров                           : 25,000 кадров/сек
Цветовое пространство                    : YUV
Субдискретизация насыщенности            : 4:2:0
Битовая глубина                          : 8 бит
Тип развёртки                            : Прогрессивная
Метод сжатия                             : С потерями
Бит/(Пиксели*Кадры)                      : 0.231
Размер потока                            : 505 Мбайт (92%)
Библиотека кодирования                   : DivX 6.8.5 (UTC 2009-08-20)

Аудио
Идентификатор                            : 1
Формат                                   : MPEG Audio
Версия формата                           : Version 1
Профиль формата                          : Layer 3
Режим                                    : Joint stereo
Расширение режима                        : MS Stereo
Идентификатор кодека                     : 55
Идентификатор кодека/Подсказка           : MP3
Продолжительность                        : 44 м.
Вид битрейта                             : Постоянный
Битрейт                                  : 128 Кбит/сек
Каналы                                   : 2 канала
Частота                                  : 48,0 КГц
Метод сжатия                             : С потерями
Размер потока                            : 40,4 Мбайт (7%)
Выравнивание                             : Соединение по промежуткам
Продолжительность промежутка             : 40  мс. (1,00 видеокадр)
Время предзагрузки промежутка            : 504  мс.
Библиотека кодирования                   : LAME3.90.3ЄЄЄЄЄЄЄЄЄЄ



Внимание! Раздача ведётся путём добавления новых серий; при каждом добавлении создётся новый торрент. Чтобы начать докачку новой серии, пользователям необходимо сделать следующее:
(1) остановить скачивание,
(2) удалить старый торрент у себя из клиента (старые серии удалять не надо),
(3) скачать новый торрент и запустить его у себя в клиенте вместо старого, при этом указать клиенту путь в старую папку куда и должно происходить скачивание новых серий.
Ваш клиент при этом должен произвести хеширование (проверку) старой папки (если не производит сам - помогите ему сделать это), и будет докачивать только те серии которых у вас ещё нет. Старые серии при этом не удаляются, а продолжают раздаваться!
Eсли вы уже удалили старые серии, то предотвратить повторную закачку старых серий можно, отжав галочку в соответсвующих местах при запуске нового торрента. По возможности, желательно не удалять старые серии как можно дольше чтобы релизёр не столько продолжал раздавать старые серии, а смог сконцентрироваться на новых.
Добавлена 14-16 серия13pb.wtf



Скачать Сестра моя, любовь через торрент http://pic.kartinco.top/new/img/2014-05/02/ky4trd6a4kc3f19p5oqf8nbi3.jpg Скачать фильм Сестра моя, любовь через торрент бесплантно в хорошем качестве Описание: Люба, студентка медицинского института, теряет горячо любимую мать. Почти сразу на героиню обрушивается и другой удар: Люба ... 8.3 10 7
Info! Золотая раздача, скачанное не засчитывается.
Торрент: Зарегистрирован [2014-05-04 21:29] · скачан: 338 раз
Статус: √ проверено
Размер: 8.33 GB
Как cкачать? Как скачать Сестра моя, любовь через торрент | qTorrent


>> Регистрируемся здесь <<






Отзывы и комментарии о схеме читаем и пишем здесь: ---> Отзывы и комментарии о схеме

Новые благодарочки в телеграм довольных пользователей:
скриншот   скриншот   скриншот   скриншот   скриншот

22-06-2014 13:09 Сестра моя, любовь Скачать торрент  

Длительность: 44 Минкты серияpb.wtf



    Дорогой пользователь! Огромная просьба, поблагодарите релизера, оцените раздачу и оставьте свои комментарий, если Вы скачали Сестра моя, любовь через торрент бесплатно! Внесите свою лепту в развитие PiratBit!
    Комментировать посты могут только пользователи прошедшие не сложную регистрацию
    Показать сообщения:    

    Сестра моя, любовь через торрент
    Скачать бесплатно Сестра моя, любовь
    Сестра моя, любовь скачать торрент
    Сестра моя, любовь смотреть онлайн
    Cкачать фильм Сестра моя, любовь бесплатно
    Сестра моя, любовь скачать торрент в хорошем качестве
    Сестра моя, любовь смотреть онлайн бесплатно в хорошем качестве


    Вы не можете начинать темы
    Вы не можете отвечать на сообщения
    Вы не можете редактировать свои сообщения
    Вы не можете удалять свои сообщения
    Вы не можете голосовать в опросах
    Вы не можете прикреплять файлы к сообщениям
    Вы можете скачивать файлы