Всегда рабочее зеркало без VPN и Proxy просто перед .vidak.icu напиши любое слово или цифру, Пример http://62z3.vidak.icu

MVO

2 сезон

1 сезон

1

1 сезон

iTunes

2 сезон

13

1 сезон

Deluxe

pack

Рекомендуем

Пиратка

30

ВАЖНО

RePack

MK11

RePack

jed

RePack

fifa19

RePack

RDR2

RePack

NEED FOR SPEED™ PAYBACK

Кинопоиск HD

6 сезон

 Острые козырьки 6 сезон

Все сериалы

все сериалы на PB.wtf

RePack

FAR CRY 5

Anonymous, нам критически не хватает 5601 руб. на оплату серверов и переферии за Апрель, помоги нам пожалуйста, вся надежда только на тебя. В благодарность мы отключим тебе всю рекламу на сайте!

×
  
Magnet ссылка

Полицейский из Беверли-Хиллз 3 / Beverly Hills Cop III (Джон Лэндис / John Landis) [1994, США, боевик, триллер, комедия, BDRip 1080p,Профессиональный (многоголосый, закадровый) pb.wtf

Полицейский из Беверли-Хиллз 3 через торрент pb.wtf

Размер: 8.87 GB | Добавлен: 8 лет назад | Торрент скачан:10 раз
Смотреть онлайн Полицейский из Беверли-Хиллз 3 | Скачать    Ребята, помогите собрать деньги на оплату серверов!!!

02-05-2014 16:38 Полицейский из Беверли-Хиллз 3 Скачать торрент  

Полицейский из Беверли-Хиллз 3 / Beverly Hills Cop III

Год выпуска: 1994
Страна: США
Жанр: боевик, триллер, комедия, криминал
Продолжительность: 01:44:14
Перевод: Профессиональный (многоголосый, закадровый)
Субтитры: Russian (UTF-8), Russian (UTF-8), German (UTF-8), English (UTF-8)
Режиссер: Джон Лэндис / John Landis
В ролях: Эдди Мёрфи (Det. Axel Foley), Джадж Райнхолд (Det. Sgt. William «Billy» Rosewood), Гектор Элизондо (Jon Flint), Тереза Рэндл (Janice), Джон Тенни (Levine), Джои Траволта (Giolito), Юджин Колльер (Leppert), Джимми Ортега (Rondell), Усон Илам (Pederson), Рэй Лайкинс (Nixon), Тим Гилберт (McKee), Рик Эйвери (Cline)
Описание:
После перерыва в семь лет полицейский из Детройта Аксель Фоули снова вынужден побывать у своих друзей в Беверли-Хиллз. Его приводят туда поиски убийцы любимого шефа.
В результате парк аттракционов «Мир чудес», где бандиты в жутком подполье печатали фальшивые доллары, стал ареной боевых действий, а наш герой отомстил убийцам, прославился и познакомился с очаровательной работницей парка.
Рейтинг
kinopoisk.ru: 7.125 (6309)
imdb.com: 5.40 (46 411)
MPAA: R - Лицам до 17 лет обязательно присутствие взрослого
Качество: BDRip 1080p
Формат: MKV
Видео кодек: AVC
Аудио кодек: AC3
Видео: AVC, 1920x1080 (16:9), 10090 kbps, 23,976 fps, 0,203 bpp
Аудио №1: русский / AC3 / 5.1 / 48 kHz / 448 kbps / 16 bit | - Киномания|
Аудио №2: русский / AC3 / 5.1 / 48 kHz / 448 kbps / 16 bit | - R5|
Аудио №3: русский / AC3 / 2.0 / 48 kHz / 192 kbps / 16 bit | - СТС|
Аудио №4: русский / AC3 / 5.1 / 48 kHz / 448 kbps / 16 bit | - А. Гаврилов|
Аудио №5: украинский / AC3 / 2.0 / 48 kHz / 192 kbps / 16 bit | - 1+1|
Аудио №6: английский / AC3 / 5.1 / 48 kHz / 384 kbps / 16 bit ORIGINAL
Релиз от: ஐ-Best is the Best-ஐ
General
Unique ID : 254621531298616850448659599458268576130 (0xBF8E52BAB42BCB6692F79C4EC2637982)
Complete name : E:\Policejskij.iz.Beverli.Hillz.III.1994.BDRip.1080p.mkv
Format : Matroska
Format version : Version 4 / Version 2
File size : 8.87 GiB
Duration : 1h 44mn
Overall bit rate : 12.2 Mbps
Encoded date : UTC 2013-05-28 08:10:24
Writing application : mkvmerge v6.1.0 ('Old Devil') built on Mar 2 2013 14:32:37
Writing library : libebml v1.3.0 + libmatroska v1.4.0

Video
ID : 1
Format : AVC
Format/Info : Advanced Video Codec
Format profile : High@L4.1
Format settings, CABAC : Yes
Format settings, ReFrames : 4 frames
Codec ID : V_MPEG4/ISO/AVC
Duration : 1h 44mn
Bit rate : 10.1 Mbps
Width : 1 920 pixels
Height : 1 080 pixels
Display aspect ratio : 16:9
Frame rate : 23.976 fps
Color space : YUV
Chroma subsampling : 4:2:0
Bit depth : 8 bits
Scan type : Progressive
Bits/(Pixel*Frame) : 0.203
Stream size : 7.15 GiB (81%)
Writing library : x264 core 133 r2334 a3ac64b
Encoding settings : cabac=1 / ref=4 / deblock=1:-1:-1 / analyse=0x3:0x133 / me=umh / subme=10 / psy=1 / psy_rd=1.00:0.00 / mixed_ref=1 / me_range=32 / chroma_me=1 / trellis=2 / 8x8dct=1 / cqm=0 / deadzone=21,11 / fast_pskip=0 / chroma_qp_offset=-2 / threads=6 / lookahead_threads=1 / sliced_threads=0 / nr=0 / decimate=1 / interlaced=0 / bluray_compat=0 / constrained_intra=0 / bframes=10 / b_pyramid=2 / b_adapt=2 / b_bias=0 / direct=3 / weightb=1 / open_gop=0 / weightp=2 / keyint=240 / keyint_min=24 / scenecut=40 / intra_refresh=0 / rc=2pass / mbtree=0 / bitrate=10090 / ratetol=2.0 / qcomp=1.00 / qpmin=0 / qpmax=51 / qpstep=4 / cplxblur=20.0 / qblur=0.5 / ip_ratio=1.40 / pb_ratio=1.30 / aq=1:1.00
Language : English
Default : Yes
Forced : No
Color primaries : BT.709-5, BT.1361, IEC 61966-2-4, SMPTE RP177
Transfer characteristics : BT.709-5, BT.1361
Matrix coefficients : BT.709-5, BT.1361, IEC 61966-2-4 709, SMPTE RP177

Audio #1
ID : 2
Format : AC-3
Format/Info : Audio Coding 3
Mode extension : CM (complete main)
Codec ID : A_AC3
Duration : 1h 44mn
Bit rate mode : Constant
Bit rate : 448 Kbps
Channel(s) : 6 channels
Channel positions : Front: L C R, Side: L R, LFE
Sampling rate : 48.0 KHz
Bit depth : 16 bits
Compression mode : Lossy
Delay relative to video : 32ms
Stream size : 334 MiB (4%)
Title : MVO - Киномания
Language : Russian
Default : Yes
Forced : No

Audio #2
ID : 3
Format : AC-3
Format/Info : Audio Coding 3
Mode extension : CM (complete main)
Codec ID : A_AC3
Duration : 1h 44mn
Bit rate mode : Constant
Bit rate : 448 Kbps
Channel(s) : 6 channels
Channel positions : Front: L C R, Side: L R, LFE
Sampling rate : 48.0 KHz
Bit depth : 16 bits
Compression mode : Lossy
Delay relative to video : 32ms
Stream size : 334 MiB (4%)
Title : MVO - R5
Language : Russian
Default : No
Forced : No

Audio #3
ID : 4
Format : AC-3
Format/Info : Audio Coding 3
Format profile : Dolby Digital
Mode extension : CM (complete main)
Codec ID : A_AC3
Duration : 1h 44mn
Bit rate mode : Constant
Bit rate : 192 Kbps
Channel(s) : 2 channels
Channel positions : Front: L R
Sampling rate : 48.0 KHz
Bit depth : 16 bits
Compression mode : Lossy
Delay relative to video : 32ms
Stream size : 143 MiB (2%)
Title : MVO - СТС
Language : Russian
Default : No
Forced : No

Audio #4
ID : 5
Format : AC-3
Format/Info : Audio Coding 3
Mode extension : CM (complete main)
Codec ID : A_AC3
Duration : 1h 44mn
Bit rate mode : Constant
Bit rate : 448 Kbps
Channel(s) : 6 channels
Channel positions : Front: L C R, Side: L R, LFE
Sampling rate : 48.0 KHz
Bit depth : 16 bits
Compression mode : Lossy
Delay relative to video : 32ms
Stream size : 334 MiB (4%)
Title : AVO - А. Гаврилов
Language : Russian
Default : No
Forced : No

Audio #5
ID : 6
Format : AC-3
Format/Info : Audio Coding 3
Format profile : Dolby Digital
Mode extension : CM (complete main)
Codec ID : A_AC3
Duration : 1h 44mn
Bit rate mode : Constant
Bit rate : 192 Kbps
Channel(s) : 2 channels
Channel positions : Front: L R
Sampling rate : 48.0 KHz
Bit depth : 16 bits
Compression mode : Lossy
Delay relative to video : 32ms
Stream size : 143 MiB (2%)
Title : MVO - 1+1
Language : Ukrainian
Default : No
Forced : No

Audio #6
ID : 7
Format : AC-3
Format/Info : Audio Coding 3
Mode extension : CM (complete main)
Codec ID : A_AC3
Duration : 1h 44mn
Bit rate mode : Constant
Bit rate : 384 Kbps
Channel(s) : 6 channels
Channel positions : Front: L C R, Side: L R, LFE
Sampling rate : 48.0 KHz
Bit depth : 16 bits
Compression mode : Lossy
Stream size : 286 MiB (3%)
Language : English
Default : No
Forced : No

Text #1
ID : 8
Format : UTF-8
Codec ID : S_TEXT/UTF8
Codec ID/Info : UTF-8 Plain Text
Language : Russian
Default : No
Forced : No

Text #2
ID : 9
Format : UTF-8
Codec ID : S_TEXT/UTF8
Codec ID/Info : UTF-8 Plain Text
Title : Ненормативные
Language : Russian
Default : No
Forced : No

Text #3
ID : 10
Format : UTF-8
Codec ID : S_TEXT/UTF8
Codec ID/Info : UTF-8 Plain Text
Language : German
Default : No
Forced : No

Text #4
ID : 11
Format : UTF-8
Codec ID : S_TEXT/UTF8
Codec ID/Info : UTF-8 Plain Text
Language : English
Default : No
Forced : No

Menu
00:00:00.000 : en:00:00:00.000
00:09:35.116 : en:00:09:35.116
00:15:58.958 : en:00:15:58.958
00:20:58.299 : en:00:20:58.299
00:26:57.699 : en:00:26:57.699
00:37:38.256 : en:00:37:38.256
00:40:06.487 : en:00:40:06.487
00:46:27.076 : en:00:46:27.076
00:53:20.489 : en:00:53:20.489
00:56:22.504 : en:00:56:22.504
01:03:24.342 : en:01:03:24.342
01:10:30.226 : en:01:10:30.226
01:19:38.857 : en:01:19:38.857
01:37:22.837 : en:01:37:22.837
pb.wtf



Скачать Полицейский из Беверли-Хиллз 3 через торрент http://i4.imageban.ru/out/2014/05/02/b16c60c6034a656644a83212a9430baa.jpg Скачать, смотреть онлайн Полицейский из Беверли-Хиллз 3 бесплантно в хорошем качестве Описание: После перерыва в семь лет полицейский из Детройта Аксель Фоули снова вынужден побывать у своих друзей в Беверли-Хиллз. Его ... 10 10 6
Info! Золотая раздача, скачанное не засчитывается.
Торрент: Зарегистрирован [2014-05-02 16:38] · скачан: 10 раз
Статус: √ проверено
Размер: 8.87 GB
Как cкачать? Как скачать Полицейский из Беверли-Хиллз 3 через торрент | UTorrent

% Раздел Тема Автор DL S | L
Фильмы до 2000 г. [ 1.37 GB ] Полицейский из Беверли-Хиллз 3 / Beverly Hills Cop III [1994 DVDRip] chaga2009 Скачать
1 | 0

28-11-2019 20:33  

Отключить всю рекламу на сайте

    Дорогой пользователь! Огромная просьба, поблагодарите релизера, оцените раздачу и оставьте свои комментарий, если Вы скачали Полицейский из Беверли-Хиллз 3 через торрент бесплатно!
    Комментировать посты могут только пользователи прошедшие не сложную регистрацию
    Показать сообщения:    

    Полицейский из Беверли-Хиллз 3 через торрент
    Скачать бесплатно Полицейский из Беверли-Хиллз 3
    Полицейский из Беверли-Хиллз 3 скачать торрент
    Полицейский из Беверли-Хиллз 3 смотреть онлайн
    Cкачать фильм Полицейский из Беверли-Хиллз 3 бесплатно
    Полицейский из Беверли-Хиллз 3 скачать торрент в хорошем качестве
    Полицейский из Беверли-Хиллз 3 смотреть онлайн бесплатно в хорошем качестве


    Вы не можете начинать темы
    Вы не можете отвечать на сообщения
    Вы не можете редактировать свои сообщения
    Вы не можете удалять свои сообщения
    Вы не можете голосовать в опросах
    Вы не можете прикреплять файлы к сообщениям
    Вы можете скачивать файлы