Достать ножи: Стеклянная луковица

MVO

Добыча

Дубляж

Уэнсдэй

1 сезон

Тор

Дубляж

13 клиническая

1 сезон

Жестокая ночь

MVO

Одни из нас

1 сезон

Deluxe

pack

Рекомендуем

30

Пиратка

ВАЖНО

ВАЖНО

Ghostwire

Пиратка

jed

RePack

nioh2

RePack

RDR2

RePack

NEED FOR SPEED™ PAYBACK

RePack

скачать торрент

Кинопоиск HD

Острые козырьки 6 сезон

6 сезон

FAR CRY 6

RePack

скачать торрент

Лицензия

скачать торрент

MVO

1

1 сезон

скачать торрент

1 сезон

скачать торрент

Лицензия

  

Чистая кожа / Cleanskin (Хади Хаджэйг) [2012 г., триллер, драма, криминал, HDRip, Авторский одноголосый (Антон Карповский)]

Чистая кожа через торрент pb.wtf

Размер: 1.46 GB | Добавлен: 8 лет 8 мес. назад | Торрент скачан:94 раза
Смотреть онлайн | Скачать | Поддержите нас   

02-05-2014 17:25 Чистая кожа Скачать торрент  

Чистая кожа / Cleanskin
Год выпуска: 2012
Страна: Великобритания / UK Film Studio, The
Жанр: триллер, драма, криминал
Продолжительность: 01:47:50
Перевод: Авторский одноголосый (Антон Карповский)

Режиссер: Хади Хаджэйг

В ролях: Шон Бин, Абин Галейя, Шарлотта Рэмплинг, Питер Поликарпу, Таппенс Мидлтон, Том Бёрк, Сэм Дуглас, Мишель Райан, Джеймс Фокс, Тарик Джордан

Описание: Эван — тайный правительственный агент, перед которым стоит задача выследить и ликвидировать террориста-смертника и его террористическую ячейку.

Качество: HDRip
Формат: AVI
Видео кодек: XviD
Аудио кодек: AC3
Видео: 720x304 (2.37:1), 23.976 fps, XviD build 50 ~1551 kbps avg, 0.29 bit/pixel
Аудио: 48 kHz, AC3 Dolby Digital, 3/2 (L,C,R,l,r) + LFE ch, ~384 kbps


Общее
Полное имя : H:\кино\Cleanskin.2012.HDRip.avi
Формат : AVI
Формат/Информация : Audio Video Interleave
Размер файла : 1,46 Гбайт
Продолжительность : 1 ч. 47 м.
Общий поток : 1945 Кбит/сек
Программа кодирования : VirtualDubMod 1.5.10.3 | www.virtualdub-fr.org || (build 2550/release)
Библиотека кодирования : VirtualDubMod build 2550/release

Видео
Идентификатор : 0
Формат : MPEG-4 Visual
Профиль формата : Advanced [email protected]
Параметр BVOP формата : 2
Параметр QPel формата : Нет
Параметр GMC формата : Без точки перехода
Параметр матрицы формата : Default (H.263)
Идентификатор кодека : XVID
Идентификатор кодека/Подсказка : XviD
Продолжительность : 1 ч. 47 м.
Битрейт : 1552 Кбит/сек
Ширина : 720 пикселей
Высота : 304 пикселя
Соотношение сторон : 2,35:1
Частота кадров : 23,976 кадра/сек
Цветовое пространство : YUV
Субдискретизация насыщенности : 4:2:0
Битовая глубина : 8 бит
Тип развёртки : Прогрессивная
Метод сжатия : С потерями
Бит/(Пиксели*Кадры) : 0.296
Размер потока : 1,17 Гбайт (80%)
Библиотека кодирования : XviD 1.2.1 (UTC 2008-12-04)

Аудио
Идентификатор : 1
Формат : AC-3
Формат/Информация : Audio Coding 3
Расширение режима : CM (complete main)
Параметр Endianness формата : Big
Идентификатор кодека : 2000
Продолжительность : 1 ч. 47 м.
Вид битрейта : Постоянный
Битрейт : 384 Кбит/сек
Каналы : 6 каналов
Расположение каналов : Front: L C R, Side: L R, LFE
Частота : 48,0 КГц
Битовая глубина : 16 бит
Метод сжатия : С потерями
Размер потока : 296 Мбайт (20%)
Выравнивание : Разделение по промежуткам
Продолжительность промежутка : 42 мс. (1,00 видеокадр)
Время предзагрузки промежутка : 500 мс.




Скачать Чистая кожа через торрент http://i56.fastpic.ru/big/2014/0502/4d/d1f557281988dbdc4c165049877ec94d.jpg Скачать, смотреть онлайн Чистая кожа бесплантно в хорошем качестве Описание: Эван — тайный правительственный агент, перед которым стоит задача выследить и ликвидировать террориста-смертника и его ... 10 10 4
Торрент: Зарегистрирован [2014-05-02 17:25] · скачан: 94 раз
Статус: √ проверено
Размер: 1.46 GB
Как cкачать? Как скачать Чистая кожа через торрент | UTorrent

% Раздел Тема Автор DL S | L
Фильмы [HD 720p, 1080p] (Хороший звук DUB, MVO) [ 7.39 GB ] Чистая кожа / Cleanskin | MVO | 720p bober100 Скачать
1 | 0
Фильмы 2012 [ 1.46 GB ] Чистая кожа / Cleanskin | MVO | HDRip bober100 Скачать
2 | 0
T Фильмы [HD 720p, 1080p] (Хороший звук DUB, MVO) [ 12.14 GB ] Чистая кожа / Cleanskin | MVO | 1080p bober100 Скачать
1 | 0
Фильмы 2012 [ 1.37 GB ] Чистая кожа / Cleanskin | | HDRip,Профессиональный (многоголосый, закадровый Ворон Скачать
1 | 0
Фильмы 2012 [ 1.46 GB ] Чистая кожа / Cleanskin | | HDRip Mr. Freeman Скачать
1 | 0

28-11-2019 20:33  


Отключить вcю реклaмy на сайте, в т.ч. и в плеере онлайн просмотра!

    Дорогой пользователь! Огромная просьба, поблагодарите релизера, оцените раздачу и оставьте свои комментарий, если Вы скачали Чистая кожа через торрент бесплатно!!
    Комментировать посты могут только пользователи прошедшие не сложную регистрацию
    Показать сообщения:    


    Чистая кожа через торрент
    Скачать бесплатно Чистая кожа
    Чистая кожа скачать торрент
    Чистая кожа смотреть онлайн
    Cкачать фильм Чистая кожа бесплатно
    Чистая кожа скачать торрент в хорошем качестве
    Чистая кожа смотреть онлайн бесплатно в хорошем качестве
    Вы не можете начинать темы
    Вы не можете отвечать на сообщения
    Вы не можете редактировать свои сообщения
    Вы не можете удалять свои сообщения
    Вы не можете голосовать в опросах
    Вы не можете прикреплять файлы к сообщениям
    Вы можете скачивать файлы
    Чистая кожа / Cleanskin [2012 г., триллер, драма, криминал, HDRip, Авторский одноголосый ] смотреть онлайн, скачать торрент picoco.icu