Всегда рабочее зеркало без VPN и Proxy просто перед .vidak.icu напиши любое слово или цифру, Пример http://5zqd.vidak.icu

MVO

2 сезон

1 сезон

1

1 сезон

iTunes

2 сезон

13

1 сезон

Распродажа

pack

Рекомендуем

Пиратка

30

ВАЖНО

RePack

MK11

RePack

jed

RePack

fifa19

RePack

RDR2

RePack

NEED FOR SPEED™ PAYBACK

Кинопоиск HD

6 сезон

 Острые козырьки 6 сезон

Все сериалы

все сериалы на PB.wtf

RePack

FAR CRY 5

Anonymous, нам критически не хватает 5601 руб. на оплату серверов и переферии за Апрель, помоги нам пожалуйста, вся надежда только на тебя. В благодарность мы отключим тебе всю рекламу на сайте!

×
  
Magnet ссылка

Имитатор / Copycat (Джон Эмиел) [1995 г., триллер, драма, криминал, детектив, BDRip 1080p] MVO + Original pb.wtf

Имитатор через торрент pb.wtf

Размер: 7.76 GB | Добавлен: 8 лет назад | Торрент скачан:45 раз
Смотреть онлайн Имитатор | Скачать    Ребята, помогите собрать деньги на оплату серверов!!!

03-05-2014 07:12 Имитатор Скачать торрент  

Имитатор / CopycatГод выпуска: 1995
Страна: США
Жанр: триллер, драма, криминал, детектив
Продолжительность: 02:03:05
Перевод: Профессиональный (многоголосый, закадровый)[Gemini]
Субтитры: русские, английские

Режиссер: Джон Эмиел
Продюссер: Джон Фидлер, Арнон Милчэн, Марк Тарлов
Сценарий: Энн Бидермен, Дэвид Мэдсен

Бюджет: $20 000 000
Премьера в мире: 27 октября 1995







В ролях: Сигурни Уивер, Холли Хантер, Дермот Малруни, Уильям МакНамара, Гарри Конник мл., Дж. Э. Фримен, Уилл Пэттон, Джон Ротмен, Шэннон О’Хёрли, Боб Грин




Описание: Сан-Франциско потрясен серией жестоких убийств, каждое из которых копирует аналогичные преступления, совершенные в прошлом разными маньяками. Чтобы остановить волну убийств, сотрудница полиции Эм Джей Монахан обращается за помощью к доктору Хелен Хадсон, специалисту по психологии маньяков.




Качество: BDRip 1080p
Формат: MKV
Видео кодек: AVC
Аудио кодек: AC3
Видео: 1920x800, 7746 Kbps, 23.976 fps
Аудио#1: AC-3, 6 ch, 48,0 КГц, 640 kbps (Rus)
Аудио#2: AC-3, 6 ch, 48,0 КГц, 640 kbps (Eng)
Релиз от:
boriy
Общее
Уникальный идентификатор : 238340613114689531762003858814248373982 (0xB34EBB7D00591173A9C81C801B0F4EDE)
Полное имя : Имитатор.1995.BDRip.1080p.Rus.Eng.mkv
Формат : Matroska
Версия формата : Version 4 / Version 2
Размер файла : 7,76 Гбайт
Продолжительность : 2 ч. 3 м.
Общий поток : 9023 Кбит/сек
Название фильма : Имитатор.1995
Дата кодирования : UTC 2013-02-21 14:41:14
Программа кодирования : mkvmerge v6.0.0 ('Coming Up For Air') built on Jan 20 2013 09:52:00
Библиотека кодирования : libebml v1.3.0 + libmatroska v1.4.0

Видео
Идентификатор : 1
Формат : AVC
Формат/Информация : Advanced Video Codec
Профиль формата : High@L4.1
Параметр CABAC формата : Да
Параметр ReFrames формата : 5 кадров
Идентификатор кодека : V_MPEG4/ISO/AVC
Продолжительность : 2 ч. 3 м.
Битрейт : 7746 Кбит/сек
Ширина : 1920 пикселей
Высота : 800 пикселей
Соотношение сторон : 2,40:1
Режим частоты кадров : Постоянный
Частота кадров : 23,976 кадра/сек
Цветовое пространство : YUV
Субдискретизация насыщенности : 4:2:0
Битовая глубина : 8 бит
Тип развёртки : Прогрессивная
Бит/(Пиксели*Кадры) : 0.210
Размер потока : 6,50 Гбайт (84%)
Заголовок : Rip by Boriy
Библиотека кодирования : x264 core 129 r2245 bc13772
Настройки программы : cabac=1 / ref=5 / deblock=1:-3:-3 / analyse=0x3:0x113 / me=umh / subme=10 / psy=1 / psy_rd=1.00:0.10 / mixed_ref=1 / me_range=32 / chroma_me=1 / trellis=2 / 8x8dct=1 / cqm=0 / deadzone=21,11 / fast_pskip=0 / chroma_qp_offset=-2 / threads=12 / lookahead_threads=2 / sliced_threads=0 / nr=0 / decimate=0 / interlaced=0 / bluray_compat=0 / constrained_intra=0 / bframes=5 / b_pyramid=2 / b_adapt=2 / b_bias=0 / direct=3 / weightb=1 / open_gop=0 / weightp=2 / keyint=240 / keyint_min=23 / scenecut=40 / intra_refresh=0 / rc=2pass / mbtree=0 / bitrate=7746 / ratetol=1.0 / qcomp=0.60 / qpmin=0 / qpmax=69 / qpstep=4 / cplxblur=20.0 / qblur=0.5 / ip_ratio=1.40 / pb_ratio=1.30 / aq=1:0.80
Язык : English
Default : Да
Forced : Нет

Аудио #1
Идентификатор : 2
Формат : AC-3
Формат/Информация : Audio Coding 3
Расширение режима : CM (complete main)
Параметр Endianness формата : Big
Идентификатор кодека : A_AC3
Продолжительность : 2 ч. 3 м.
Вид битрейта : Постоянный
Битрейт : 640 Кбит/сек
Каналы : 6 каналов
Расположение каналов : Front: L C R, Side: L R, LFE
Частота : 48,0 КГц
Битовая глубина : 16 бит
Метод сжатия : С потерями
Размер потока : 563 Мбайт (7%)
Заголовок : Профессиональный (многоголосый, закадровый)[Gemini]
Язык : Russian
Default : Да
Forced : Нет

Аудио #2
Идентификатор : 3
Формат : AC-3
Формат/Информация : Audio Coding 3
Расширение режима : CM (complete main)
Параметр Endianness формата : Big
Идентификатор кодека : A_AC3
Продолжительность : 2 ч. 3 м.
Вид битрейта : Постоянный
Битрейт : 640 Кбит/сек
Каналы : 6 каналов
Расположение каналов : Front: L C R, Side: L R, LFE
Частота : 48,0 КГц
Битовая глубина : 16 бит
Метод сжатия : С потерями
Размер потока : 563 Мбайт (7%)
Заголовок : Оригинал
Язык : English
Default : Нет
Forced : Нет

Текст #1
Идентификатор : 4
Формат : UTF-8
Идентификатор кодека : S_TEXT/UTF8
Идентификатор кодека/Информация : UTF-8 Plain Text
Язык : Russian
Default : Нет
Forced : Нет

Текст #2
Идентификатор : 5
Формат : UTF-8
Идентификатор кодека : S_TEXT/UTF8
Идентификатор кодека/Информация : UTF-8 Plain Text
Язык : English
Default : Нет
Forced : Нет

Меню
00:00:00.000 : :Chapter 1
00:03:51.397 : :Chapter 2
00:07:12.098 : :Chapter 3
00:10:25.499 : :Chapter 4
00:12:41.844 : :Chapter 5
00:13:53.249 : :Chapter 6
00:19:19.950 : :Chapter 7
00:20:50.248 : :Chapter 8
00:25:26.691 : :Chapter 9
00:31:40.106 : :Chapter 10
00:33:41.477 : :Chapter 11
00:36:21.262 : :Chapter 12
00:38:16.252 : :Chapter 13
00:42:17.493 : :Chapter 14
00:47:07.825 : :Chapter 15
00:48:41.084 : :Chapter 16
00:51:32.839 : :Chapter 17
00:53:50.894 : :Chapter 18
00:58:07.066 : :Chapter 19
01:00:21.868 : :Chapter 20
01:06:42.248 : :Chapter 21
01:09:16.402 : :Chapter 22
01:11:31.662 : :Chapter 23
01:14:42.769 : :Chapter 24
01:16:41.555 : :Chapter 25
01:21:54.951 : :Chapter 26
01:25:31.793 : :Chapter 27
01:28:22.547 : :Chapter 28
01:32:50.606 : :Chapter 29
01:36:12.141 : :Chapter 30
01:38:13.596 : :Chapter 31
01:39:26.210 : :Chapter 32
01:42:36.316 : :Chapter 33
01:47:33.155 : :Chapter 34
01:49:34.150 : :Chapter 35
01:51:02.656 : :Chapter 36
01:52:25.822 : :Chapter 37
01:53:35.391 : :Chapter 38
01:55:30.214 : :Chapter 39
02:03:05.586 : :Chapter 40

pb.wtf



Скачать Имитатор через торрент https://pic1.kartinco.top/images/61/oj8cz.jpg Скачать, смотреть онлайн Имитатор бесплантно в хорошем качестве Описание: Сан-Франциско потрясен серией жестоких убийств, каждое из которых копирует аналогичные преступления, совершенные в прошлом ... 10 10 5
Info! Золотая раздача, скачанное не засчитывается.
Торрент: Зарегистрирован [2014-05-03 07:12] · скачан: 45 раз
Статус: √ проверено
Размер: 7.76 GB
Как cкачать? Как скачать Имитатор через торрент | UTorrent

28-11-2019 20:33  

Отключить всю рекламу на сайте

    Дорогой пользователь! Огромная просьба, поблагодарите релизера, оцените раздачу и оставьте свои комментарий, если Вы скачали Имитатор через торрент бесплатно!
    Комментировать посты могут только пользователи прошедшие не сложную регистрацию
    Показать сообщения:    

    Имитатор через торрент
    Скачать бесплатно Имитатор
    Имитатор скачать торрент
    Имитатор смотреть онлайн
    Cкачать фильм Имитатор бесплатно
    Имитатор скачать торрент в хорошем качестве
    Имитатор смотреть онлайн бесплатно в хорошем качестве


    Вы не можете начинать темы
    Вы не можете отвечать на сообщения
    Вы не можете редактировать свои сообщения
    Вы не можете удалять свои сообщения
    Вы не можете голосовать в опросах
    Вы не можете прикреплять файлы к сообщениям
    Вы можете скачивать файлы