Ссылка на приватное зеркало нашего сайта всего за 1$. Внимание количество ограничено!!!

2 сезон

iTunes

1 сезон

1

iTunes

iTunes

iTunes

1 сезон

RePack

30

ИГРА 18+

pack

ВАЖНО

!!Акция!!

Alien_RageХит недели

RePack

MK11
pack

Забери бонус

RePack

jed

!!Акция!!

Alien_Rage

RePack

fifa19

RePack

Assassins Creed: Odyssey

RePack

NEED FOR SPEED™ PAYBACK

4 сезон

9 сезон

Бесстыжие 9 сезон

Все сериалы

все сериалы на PB.wtf

RePack

FAR CRY 5
  

Замороженный ужас / Chill Factor (Хью Джонсон / Hugh Johnson) [1999, США, боевик, триллер, комедия, BDRip 720p,Профессиональный (двухголосый) pb.wtf

Замороженный ужас через торрент pb.wtf

Размер: 4.51 GB | Добавлен: 6 лет 5 мес. назад | Торрент скачан:55 раз
Скачать  

03-05-2014 14:16 Замороженный ужас Скачать торрент  

Замороженный ужас / Chill Factor
«Двое парней, одна бомба, и очень много мороженного»


  • Год выпуска: 1999
  • Страна: США
  • Жанр: боевик, триллер, комедия, приключения
  • Продолжительность: 01:41:54
  • Перевод: Профессиональный (двухголосый)
  • Субтитры: English
  • Режиссер: Хью Джонсон / Hugh Johnson
  • В ролях:

    Кьюба Гудинг мл. (Arlo), Скит Ульрих (Tim Mason), Питер Фёрт (Colonel Andrew Brynner), Дэвид Пэймер (Dr. Richard Long), Хадсон Лейк (Vaughn), Дэниэл Хью Келли (Colonel Leo Vitelli), Кевин Дж. О’Коннор (Telstar), Джадсон Миллс (Dennis), Джордан Мотт (Carl), Дуэйн Макопсон (Burke), Джим Гримшоу (Deputy Pappas), Ричард Тодд Агуайо (Gomez)

  • Описание:
    На одном из тропических островов проводятся секретные эксперименты с химическим оружием под руководством доктора Лонга. Неправильно рассчитав радиус поражения, доктор проводит пробный взрыв, в результате которого в страшных мучениях погибает целый отряд капитана Бриннера. Капитана увольняют из армии и отправляют на 10 лет в тюрьму, а доктор остается на свободе. Через десять дет Бриннер набирает себе вооруженную команду и находит доктора, продолжающего свои страшные эксперименты...
  • Рейтинг
    kinopoisk.ru: 6.032 (270)
    imdb.com: 5.10 (7808)
    MPAA: R - Лицам до 17 лет обязательно присутствие взрослого
  • Качество: BDRip 720p
  • Формат: MKV
  • Видео кодек: AVC
  • Аудио кодек: AC3
  • Видео: AVC, 1280x544 (2.35:1), 5502 kbps, 23,976 fps, 0,330 bpp
  • Аудио №1: русский / AC3 / 2.0 / 48 kHz / 192 kbps / 16 bit |Профи|
  • Аудио №2: английский / AC3 / 5.1 / 48 kHz / 640 kbps / 16 bit
  • Релиз от: ஐ-Best is the Best-ஐ
    General
    Unique ID : 189928976299719767001318729889844061265 (0x8EE2FD82BE73AC25B56D8C5D37386451)
    Complete name : F:\Chill Factor (1999) 720p - brmp.mkv
    Format : Matroska
    Format version : Version 2
    File size : 4.51 GiB
    Duration : 1h 41mn
    Overall bit rate : 6 333 Kbps
    Encoded date : UTC 2012-07-18 07:18:22
    Writing application : mkvmerge v4.9.1 ('Ich will') сборка от Jul 11 2011 23:53:15
    Writing library : libebml v1.2.1 + libmatroska v1.1.1

    Video
    ID : 1
    Format : AVC
    Format/Info : Advanced Video Codec
    Format profile : High@L4.1
    Format settings, CABAC : Yes
    Format settings, ReFrames : 5 frames
    Codec ID : V_MPEG4/ISO/AVC
    Duration : 1h 41mn
    Bit rate : 5 502 Kbps
    Width : 1 280 pixels
    Height : 544 pixels
    Display aspect ratio : 2.35:1
    Frame rate : 23.976 fps
    Color space : YUV
    Chroma subsampling : 4:2:0
    Bit depth : 8 bits
    Scan type : Progressive
    Bits/(Pixel*Frame) : 0.330
    Stream size : 3.83 GiB (85%)
    Title : uralmix
    Writing library : x264 core 125 r2200 999b753
    Encoding settings : cabac=1 / ref=5 / deblock=1:0:0 / analyse=0x3:0x133 / me=umh / subme=7 / psy=1 / psy_rd=1.00:0.00 / mixed_ref=1 / me_range=16 / chroma_me=1 / trellis=1 / 8x8dct=1 / cqm=0 / deadzone=21,11 / fast_pskip=0 / chroma_qp_offset=-2 / threads=12 / lookahead_threads=2 / sliced_threads=0 / nr=0 / decimate=1 / interlaced=0 / bluray_compat=0 / constrained_intra=0 / bframes=3 / b_pyramid=2 / b_adapt=1 / b_bias=0 / direct=1 / weightb=1 / open_gop=0 / weightp=2 / keyint=240 / keyint_min=23 / scenecut=40 / intra_refresh=0 / rc_lookahead=40 / rc=2pass / mbtree=1 / bitrate=5502 / ratetol=1.0 / qcomp=0.60 / qpmin=0 / qpmax=69 / qpstep=4 / cplxblur=20.0 / qblur=0.5 / ip_ratio=1.40 / aq=1:1.00
    Language : English
    Default : Yes
    Forced : No

    Audio #1
    ID : 2
    Format : AC-3
    Format/Info : Audio Coding 3
    Mode extension : CM (complete main)
    Codec ID : A_AC3
    Duration : 1h 41mn
    Bit rate mode : Constant
    Bit rate : 192 Kbps
    Channel(s) : 2 channels
    Channel positions : Front: L R
    Sampling rate : 48.0 KHz
    Bit depth : 16 bits
    Compression mode : Lossy
    Stream size : 140 MiB (3%)
    Language : Russian
    Default : Yes
    Forced : No

    Audio #2
    ID : 3
    Format : AC-3
    Format/Info : Audio Coding 3
    Mode extension : CM (complete main)
    Codec ID : A_AC3
    Duration : 1h 41mn
    Bit rate mode : Constant
    Bit rate : 640 Kbps
    Channel(s) : 6 channels
    Channel positions : Front: L C R, Side: L R, LFE
    Sampling rate : 48.0 KHz
    Bit depth : 16 bits
    Compression mode : Lossy
    Stream size : 467 MiB (10%)
    Language : English
    Default : No
    Forced : No

    Text
    ID : 4
    Format : UTF-8
    Codec ID : S_TEXT/UTF8
    Codec ID/Info : UTF-8 Plain Text
    Language : English
    Default : No
    Forced : No

    Скриншоты:


    pb.wtf



  • Скачать Замороженный ужас через торрент http://pic.kartinco.top/new/img/2014-05/03/zhwkyxekekfukcsl0s4bslhz8.jpg Скачать фильм Замороженный ужас через торрент бесплантно в хорошем качестве Описание: На одном из тропических островов проводятся секретные эксперименты с химическим оружием под руководством доктора Лонга. ... 10 10 12
    Торрент: Зарегистрирован [2014-05-03 14:16] · скачан: 55 раз
    Статус: √ проверено
    Размер: 4.51 GB
    Как cкачать? Как скачать Замороженный ужас через торрент | qTorrent

    28-11-2019 20:33  

    Отключить всю рекламу на сайте

      Дорогой пользователь! Огромная просьба, поблагодарите релизера, оцените раздачу и оставьте свои комментарий, если Вы скачали Замороженный ужас через торрент бесплатно! Внесите свою лепту в развитие PiratBit!
      Комментировать посты могут только пользователи прошедшие не сложную регистрацию
      Показать сообщения:    

      Замороженный ужас через торрент
      Скачать бесплатно Замороженный ужас
      Замороженный ужас скачать торрент
      Замороженный ужас смотреть онлайн
      Cкачать фильм Замороженный ужас бесплатно
      Замороженный ужас скачать торрент в хорошем качестве
      Замороженный ужас смотреть онлайн бесплатно в хорошем качестве


      Вы не можете начинать темы
      Вы не можете отвечать на сообщения
      Вы не можете редактировать свои сообщения
      Вы не можете удалять свои сообщения
      Вы не можете голосовать в опросах
      Вы не можете прикреплять файлы к сообщениям
      Вы можете скачивать файлы