2 сезон

iTunes

1 сезон

1

iTunes

iTunes

iTunes

1 сезон

RePack

30

ИГРА 18+

pack

ВАЖНО

!!Акция!!

Alien_RageХит недели

RePack

MK11
pack

Забери бонус

RePack

jed

!!Акция!!

Alien_Rage

RePack

fifa19

RePack

Assassins Creed: Odyssey

RePack

NEED FOR SPEED™ PAYBACK

4 сезон

9 сезон

Бесстыжие 9 сезон

Все сериалы

все сериалы на PB.wtf

RePack

FAR CRY 5
  

Задержание Мертвых / Зомби На Продленке / Detention of the Dead (Алекс Крэйг Манн) [2013 г., ужасы, комедия, BDRip] DVO (DeadSno & den904) pb.wtf

Задержание Мертвых через торрент pb.wtf

Размер: 743 MB | Добавлен: 6 лет 5 мес. назад | Торрент скачан:174 раза
Скачать  

03-05-2014 14:42 Задержание Мертвых Скачать торрент  

Задержание Мертвых / Зомби На Продленке / Detention of the Dead
Год выпуска: 2013
Страна: США
Жанр: ужасы, комедия
Продолжительность: 01:27:00
Перевод: Любительский двухголосый (DeadSno & den904)
Тип релиза: Пиратка
Субтитры: нет

Режиссер: Алекс Крэйг Манн
Продюссер: Брук Андерсон, Майкл Манассери, Рик Джонсон, ...
Сценарий: Алекс Крэйг Манн, Роб Риноу

Бюджет: $500 000
Премьера в мире: 25 октября 2012, ...




В ролях: Якоб Закар, Алекса Николас, Криста Б. Аллен, Джэйсон Блэр, Джастин Чон, Макс Адлер, Джозеф Портер, Мишель Мессмер, Джонатан Кугэн, Ричард Джуэлл

Описание: Группа подростков оказывается в западне на территории школы в момент начавшегося зомби апокалипсиса. Им предстоит утихомирить свои разногласия и объединиться перед лицом плотоядной опасности…

Качество: BDRip исходник Detention of the Dead.2012.1080p BLY-RAY x264-FooKaS [PublicHD]
Формат: AVI
Видео кодек: XviD
Аудио кодек: AC3
Видео: 652x272 (2.40:1), 23.976 fps, XviD build 64 ~1023 kbps avg, 0.24 bit/pixel
Аудио#1: 48 kHz, AC3 Dolby Digital, 3/2 (L,C,R,l,r) + LFE ch, ~160 kbps
Релиз от: Deadmauvlad
скриншот   скриншот   скриншот   скриншот   скриншот  





Общее
Полное имя : D:\Рипы выкладка [Deadmauvlad]\Detention_of_the_Dead.2012.BDRip_Deadmauvlad.avi
Формат : AVI
Формат/Информация : Audio Video Interleave
Размер файла : 743 Мбайт
Продолжительность : 1 ч. 27 м.
Общий поток : 1193 Кбит/сек
Название фильма : Detention_of_the_Dead.2012.BDRip_Deadmauvlad / Deadmauvlad
Режиссёр : Deadmauvlad / Deadmauvlad
Формат оригинала/Распространитель : Detention of the Dead.2012.1080p BLY-RAY x264-FooKaS [PublicHD]
Жанр : Ужасы
Тема : Detention.of.the.Dead.2012.BDRip_Deadmauvlad
Программа кодирования : XviD4PSP 6.0 / 54.29.105
Формат оригинала : FooKaS [PublicHD] TrueHD
Формат оригинала/Имя : Фильм
Правообладатель : Deadmauvlad Team'S / Deadmauvlad_Team's

Видео
Идентификатор : 0
Формат : MPEG-4 Visual
Профиль формата : Advanced Simple@L5
Параметр BVOP формата : 1
Параметр QPel формата : Нет
Параметр GMC формата : Без точки перехода
Параметр матрицы формата : Default (MPEG)
Идентификатор кодека : XVID
Идентификатор кодека/Подсказка : XviD
Продолжительность : 1 ч. 27 м.
Битрейт : 1024 Кбит/сек
Ширина : 652 пикселя
Высота : 272 пикселя
Соотношение сторон : 2,35:1
Частота кадров : 23,976 кадра/сек
Цветовое пространство : YUV
Субдискретизация насыщенности : 4:2:0
Битовая глубина : 8 бит
Тип развёртки : Прогрессивная
Метод сжатия : С потерями
Бит/(Пиксели*Кадры) : 0.241
Размер потока : 637 Мбайт (86%)
Библиотека кодирования : XviD 64

Аудио
Идентификатор : 1
Формат : AC-3
Формат/Информация : Audio Coding 3
Расширение режима : CM (complete main)
Параметр Endianness формата : Big
Идентификатор кодека : 2000
Продолжительность : 1 ч. 27 м.
Вид битрейта : Постоянный
Битрейт : 160 Кбит/сек
Каналы : 6 каналов
Расположение каналов : Front: L C R, Side: L R, LFE
Частота : 48,0 КГц
Битовая глубина : 16 бит
Метод сжатия : С потерями
Размер потока : 99,6 Мбайт (13%)
Выравнивание : Соединение по промежуткам
Продолжительность промежутка : 42 мс. (1,00 видеокадр)
Время предзагрузки промежутка : 512 мс.

В целом фильм конечно и стереотипный, с банальным сюжетом и типичными героями (парень-неудачник, красавица школы, качок, девушка-готка и др.), но чем-то он цепляет. Нет, уж точно не диалогами, ибо все они словно скопированы из других фильмов о зомби. Точно и не актерской игрой, ведь как таковых профессионалов в главных ролях не имеется. И даже не гримом зомби, ведь он был не самый удачный из всех что я видел.
pb.wtf



Скачать Задержание Мертвых через торрент http://pic.kartinco.top/images/6/qj63f.jpg Скачать фильм Задержание Мертвых через торрент бесплантно в хорошем качестве Описание: Группа подростков оказывается в западне на территории школы в момент начавшегося зомби апокалипсиса. Им предстоит утихомирить ... 10 10 4
Торрент: Зарегистрирован [2014-05-03 14:42] · скачан: 174 раз
Статус: T временная
Размер: 743 MB
Как cкачать? Как скачать Задержание Мертвых через торрент | qTorrent



Последний раз редактировалось: Se7ven95 (2014-05-03 15:01), всего редактировалось 1 раз

28-11-2019 20:33  

Отключить всю рекламу на сайте

03-05-2014 14:44 Задержание Мертвых Скачать торрент  

если семпл не робит перезалью мин через 5-7pb.wtf



03-05-2014 15:32 Задержание Мертвых Скачать торрент  

тема сисек раскрыта?pb.wtf



03-05-2014 15:49 Задержание Мертвых Скачать торрент  

ncux_c_kocou нетpb.wtf



    Дорогой пользователь! Огромная просьба, поблагодарите релизера, оцените раздачу и оставьте свои комментарий, если Вы скачали Задержание Мертвых через торрент бесплатно! Внесите свою лепту в развитие PiratBit!
    Комментировать посты могут только пользователи прошедшие не сложную регистрацию
    Показать сообщения:    

    Задержание Мертвых через торрент
    Скачать бесплатно Задержание Мертвых
    Задержание Мертвых скачать торрент
    Задержание Мертвых смотреть онлайн
    Cкачать фильм Задержание Мертвых бесплатно
    Задержание Мертвых скачать торрент в хорошем качестве
    Задержание Мертвых смотреть онлайн бесплатно в хорошем качестве


    Вы не можете начинать темы
    Вы не можете отвечать на сообщения
    Вы не можете редактировать свои сообщения
    Вы не можете удалять свои сообщения
    Вы не можете голосовать в опросах
    Вы не можете прикреплять файлы к сообщениям
    Вы можете скачивать файлы