Ссылка на приватное зеркало нашего сайта всего за 1$. Внимание количество ограничено!!!

2 сезон

iTunes

1 сезон

1

iTunes

iTunes

iTunes

1 сезон

RePack

30

ИГРА 18+

pack

ВАЖНО

!!Акция!!

Alien_RageХит недели

RePack

MK11
pack

Забери бонус

RePack

jed

!!Акция!!

Alien_Rage

RePack

fifa19

RePack

Assassins Creed: Odyssey

RePack

NEED FOR SPEED™ PAYBACK

4 сезон

9 сезон

Бесстыжие 9 сезон

Все сериалы

все сериалы на PB.wtf

RePack

FAR CRY 5
  

Патруль времени / Timecop (Питер Хайамс / Peter Hyams) [1994, Канада, США, Япония, фантастика, боевик, триллер, BDRip 1080p,Профессиональный (многоголосый, закадровый) pb.wtf

Патруль времени через торрент pb.wtf

Размер: 8.37 GB | Добавлен: 6 лет 5 мес. назад | Торрент скачан:28 раз
Скачать  

03-05-2014 15:03 Патруль времени Скачать торрент  

Патруль времени / Timecop
«They killed his wife ten years ago. There's still time to save her. Murder is forever... until now»


  • Год выпуска: 1994
  • Страна: Канада, США, Япония
  • Жанр: фантастика, боевик, триллер, мелодрама
  • Продолжительность: 01:37:54
  • Перевод: Профессиональный (многоголосый, закадровый)
  • Субтитры: Нет
  • Режиссер: Питер Хайамс / Peter Hyams
  • В ролях:

    Жан-Клод Ван Дамм (Walker), Миа Сара (Melissa), Рон Сильвер (McComb), Брюс МакГилл (Matuzak), Глория Рубен (Fielding), Скотт Беллис (Ricky), Джейсон Шомбинг (Atwood), Скотт Лоуренс (Spota), Кеннет Уэлш (Utley), Брент Вулси (Shotgun), Брэд Лори (Reyes), Шэйн Келли (Rollerblades)

  • Описание:
    Передвижения во времени породили новый тип преступлений. Можно изменять события прошлого, контролировать финансовые рынки и даже уничтожать целые народы. Правительство США создает специальное полицейское подразделение - патруль времени.
    Продажный сенатор, рвущийся к президентскому креслу, отправляется в прошлое, чтобы изменить ход истории. Вслед за ним отправляется полицейский Макс Уокер. Его ждет не только смертельная опасность, но и сильнейшее искушение, ведь, попав в прошлое, он может предотвратить смерть любимой жены...
  • Рейтинг
    kinopoisk.ru: 6.538 (7369)
    imdb.com: 5.80 (36 743)
    MPAA: R - Лицам до 17 лет обязательно присутствие взрослого
  • Качество: BDRip 1080p
  • Формат: MKV
  • Видео кодек: AVC
  • Аудио кодек: AC3
  • Видео: AVC, 1904x800 (2.40:1), 10900 kbps, 23,976 fps, 0,298 bpp
  • Аудио №1: русский / AC3 / 5.1 / 48 kHz / 448 kbps / 16 bit |ПроФи - многоголос|
  • Аудио №2: русский / AC3 / 5.1 / 48 kHz / 448 kbps / 16 bit |Авторский одноголосый-А.Гаврилов|
  • Аудио №3: английский / AC3 / 5.1 / 48 kHz / 448 kbps / 16 bit ORIGINAL"English"
  • Релиз от: ஐ-Best is the Best-ஐ
    Общее
    Уникальный идентификатор : 223550973559223935258948754896341976564 (0xA82E59F5D6E88C52975E680B138845F4)
    Полное имя : F:\Timecop.1994.mkv
    Формат : Matroska
    Версия формата : Version 2
    Размер файла : 8,37 Гбайт
    Продолжительность : 1 ч. 37 м.
    Общий поток : 12,2 Мбит/сек
    Название фильма : Timecop.1994
    Дата кодирования : UTC 2013-03-15 19:11:50
    Программа кодирования : mkvmerge v5.8.0 ('No Sleep / Pillow') built on Sep 2 2012 15:37:04
    Библиотека кодирования : libebml v1.2.3 + libmatroska v1.3.0

    Видео
    Идентификатор : 1
    Формат : AVC
    Формат/Информация : Advanced Video Codec
    Профиль формата : High@L4.1
    Параметр CABAC формата : Да
    Параметр ReFrames формата : 5 кадров
    Идентификатор кодека : V_MPEG4/ISO/AVC
    Продолжительность : 1 ч. 37 м.
    Битрейт : 10,9 Мбит/сек
    Ширина : 1904 пикселя
    Высота : 800 пикселей
    Соотношение сторон : 2,40:1
    Режим частоты кадров : Постоянный
    Частота кадров : 23,976 кадра/сек
    Цветовое пространство : YUV
    Субдискретизация насыщенности : 4:2:0
    Битовая глубина : 8 бит
    Тип развёртки : Прогрессивная
    Бит/(Пиксели*Кадры) : 0.298
    Размер потока : 7,28 Гбайт (87%)
    Заголовок : Hatfield..
    Библиотека кодирования : x264 core 129 r2245 bc13772
    Настройки программы : cabac=1 / ref=5 / deblock=1:-3:-3 / analyse=0x3:0x113 / me=umh / subme=11 / psy=1 / psy_rd=1.00:0.10 / mixed_ref=1 / me_range=32 / chroma_me=1 / trellis=2 / 8x8dct=1 / cqm=0 / deadzone=21,11 / fast_pskip=0 / chroma_qp_offset=-3 / threads=9 / lookahead_threads=1 / sliced_threads=0 / nr=0 / decimate=0 / interlaced=0 / bluray_compat=0 / constrained_intra=0 / bframes=5 / b_pyramid=2 / b_adapt=2 / b_bias=0 / direct=3 / weightb=1 / open_gop=0 / weightp=2 / keyint=240 / keyint_min=23 / scenecut=40 / intra_refresh=0 / rc=2pass / mbtree=0 / bitrate=10900 / ratetol=1.0 / qcomp=0.60 / qpmin=0 / qpmax=69 / qpstep=4 / cplxblur=20.0 / qblur=0.5 / ip_ratio=1.40 / pb_ratio=1.30 / aq=1:0.80
    Язык : English
    Default : Да
    Forced : Нет

    Аудио #1
    Идентификатор : 2
    Формат : AC-3
    Формат/Информация : Audio Coding 3
    Расширение режима : CM (complete main)
    Параметр Endianness формата : Big
    Идентификатор кодека : A_AC3
    Продолжительность : 1 ч. 37 м.
    Вид битрейта : Постоянный
    Битрейт : 448 Кбит/сек
    Каналы : 6 каналов
    Расположение каналов : Front: L C R, Side: L R, LFE
    Частота : 48,0 КГц
    Битовая глубина : 16 бит
    Метод сжатия : С потерями
    Размер потока : 314 Мбайт (4%)
    Заголовок : Профессиональный (многоголосый,закадровый) (Superbit)
    Язык : Russian
    Default : Да
    Forced : Нет

    Аудио #2
    Идентификатор : 3
    Формат : AC-3
    Формат/Информация : Audio Coding 3
    Расширение режима : CM (complete main)
    Параметр Endianness формата : Big
    Идентификатор кодека : A_AC3
    Продолжительность : 1 ч. 37 м.
    Вид битрейта : Постоянный
    Битрейт : 448 Кбит/сек
    Каналы : 6 каналов
    Расположение каналов : Front: L C R, Side: L R, LFE
    Частота : 48,0 КГц
    Битовая глубина : 16 бит
    Метод сжатия : С потерями
    Размер потока : 314 Мбайт (4%)
    Заголовок : Одноголосый - А.Гаврилов
    Язык : Russian
    Default : Нет
    Forced : Нет

    Аудио #3
    Идентификатор : 4
    Формат : AC-3
    Формат/Информация : Audio Coding 3
    Расширение режима : CM (complete main)
    Параметр Endianness формата : Big
    Идентификатор кодека : A_AC3
    Продолжительность : 1 ч. 37 м.
    Вид битрейта : Постоянный
    Битрейт : 448 Кбит/сек
    Каналы : 6 каналов
    Расположение каналов : Front: L C R, Side: L R, LFE
    Частота : 48,0 КГц
    Битовая глубина : 16 бит
    Метод сжатия : С потерями
    Размер потока : 314 Мбайт (4%)
    Заголовок : Оригинал
    Язык : English
    Default : Нет
    Forced : Нет

    Меню
    00:00:00.000 : :Chapter 01
    00:07:51.053 : :Chapter 02
    00:13:25.221 : :Chapter 03
    00:15:39.271 : :Chapter 04
    00:22:49.534 : :Chapter 05
    00:24:07.863 : :Chapter 06
    00:34:07.086 : :Chapter 07
    00:39:00.588 : :Chapter 08
    00:43:38.240 : :Chapter 09
    00:47:14.790 : :Chapter 10
    01:01:00.156 : :Chapter 11
    01:07:07.398 : :Chapter 12
    01:14:08.902 : :Chapter 13
    01:26:11.416 : :Chapter 14
    01:29:40.083 : :Chapter 15
    01:33:24.056 : :Chapter 16
    01:37:47.862 : :Chapter 17
    01:37:54.660 : :Chapter 18

    Скриншоты:


    pb.wtf



  • Скачать Патруль времени через торрент http://pic.kartinco.top/new/img/2014-05/03/80d0poiruof5bp7xdksevu569.png Скачать фильм Патруль времени через торрент бесплантно в хорошем качестве Описание: Передвижения во времени породили новый преступлений. Можно изменять события прошлого, контролировать финансовые рынки и даже ... 9.8 10 9
    Торрент: Зарегистрирован [2014-05-03 15:03] · скачан: 28 раз
    Статус: √ проверено
    Размер: 8.37 GB
    Как cкачать? Как скачать Патруль времени через торрент | qTorrent

    % Раздел Тема Автор DL S | L
    Фильмы (Blu-ray, BD-Remux, HDDVD) [ 22.18 GB ] Патруль времени / Timecop [1994 BD Remux 1080p] 3xAVO+3xMVO bober100 Скачать
    1 | 0
    Фильмы до 2000 г. [ 2.06 GB ] Патруль времени / Timecop [1994 Япония BDRip многоголосый - ] _KaisiK_ Скачать
    1 | 0
    Фильмы [HD 720p, 1080p] (Хороший звук DUB, MVO) [ 4.3 GB ] Патруль времени / Timecop [1994 BDRip 720p] MVO AVO msltel Скачать
    1 | 1
    Фильмы до 2000 г. [ 1.46 GB ] Патруль времени / Timecop [1994 BDRip Пиратка] Jhamal Скачать
    1 | 0
    Фильмы 2001-2005 [ 1.46 GB ] Патруль времени 2: Берлинское решение / Timecop 2: The Berlin Decision [2 DVDRip] slav4i4ok Скачать
    1 | 0
    Фильмы 2001-2005 [ 1.46 GB ] Патруль времени 2: Берлинское решение / Timecop: The Berlin Decision [2003 DVDRip] MVO + Original -=Cherry=- Скачать
    1 | 0
    Фильмы до 2000 г. [ 1.46 GB ] Патруль времени / Timecop [1994 HDRip] chaga2009 Скачать
    1 | 0

    28-11-2019 20:33  

    Отключить всю рекламу на сайте

      Дорогой пользователь! Огромная просьба, поблагодарите релизера, оцените раздачу и оставьте свои комментарий, если Вы скачали Патруль времени через торрент бесплатно! Внесите свою лепту в развитие PiratBit!
      Комментировать посты могут только пользователи прошедшие не сложную регистрацию
      Показать сообщения:    

      Патруль времени через торрент
      Скачать бесплатно Патруль времени
      Патруль времени скачать торрент
      Патруль времени смотреть онлайн
      Cкачать фильм Патруль времени бесплатно
      Патруль времени скачать торрент в хорошем качестве
      Патруль времени смотреть онлайн бесплатно в хорошем качестве


      Вы не можете начинать темы
      Вы не можете отвечать на сообщения
      Вы не можете редактировать свои сообщения
      Вы не можете удалять свои сообщения
      Вы не можете голосовать в опросах
      Вы не можете прикреплять файлы к сообщениям
      Вы можете скачивать файлы