Присоединяйтесь к нам в Telegram!, здесь всегда актуальный адрес сайта, оперативная поддержка и многое другое!!

>

5.9

iTunes

7.4

iTunes

9.4

1 сезон

1

7.4

2 сезон

7.2

iTunes

7.3

1 сезон

13

6.1

iTunes

8.3

GOG

30

ULTIMATE

pack

9.9

Лицензия

ВАЖНО

ИГРА 18+

pack

7.3

RePack

MK11

7.7

RePack

jed

7.8

RePack

fifa19

8.5

RePack

RDR2

RePack

NEED FOR SPEED™ PAYBACK

5 сезон

9 сезон

Бесстыжие 9 сезон

Все сериалы

все сериалы на PB.wtf

RePack

FAR CRY 5

Anonymous, доброй ночи, мы катастрофически не успеваем собрать деньги на оплату серверов, помогите нам пожалуйста 5,10,15р., для нас важна любая помощь . В качестве благодарности мы отключим Вам всю рекламу на сайте (укажите свой ник в строку Ваше имя)!

×
  
Magnet ссылка

Винтаж feat Kirill Clash - Play [2014 г., Клип, 16+ , Pop, HDTVRip] pb.wtf

Винтаж feat Kirill Clash - Play через торрент pb.wtf

Размер: 77 MB | Добавлен: 7 лет 6 мес. назад | Торрент скачан:122 раза
Смотреть онлайн Винтаж feat Kirill Clash - Play | Скачать    Ребята, помогите собрать деньги на оплату серверов!!!

03-05-2014 15:21 Винтаж feat Kirill Clash - Play Скачать торрент  

Винтаж feat Kirill Clash - Play
Год выпуска: 2014
Страна: Россия
Жанр: Клип, 16+ , Pop
Продолжительность: 00:03:46

В ролях: Анна Юрьевна Плетнёва, Алексей Романов

Описание: «Винтаж» — российская поп-группа, в состав которой входят певица Анна Плетнёва и певец, композитор и саунд-продюсер Алексей Романоф. Ранее в состав группы входили танцовщицы Мия и Светлана Иванова

Качество: HDTVRip | (Чистый Рип Без логотипов !!!)
Формат: AVI
Видео кодек: XviD
Аудио кодек: AC3
Видео: 720x400 (1.80:1), 23.976 fps, XviD build 73 ~2455 kbps avg, 0.35 bit/pixel
Аудио#1: 48 kHz, AC3 Dolby Digital, 2/0 (L,R) ch, ~384 kbps
Релиз от: Deadmauvlad
скриншот   скриншот   скриншот   скриншот  

Код:

Общее
Полное имя : C:UsersDeadmauvladDesktopРелизы На выкладкуВинтаж .feat.Kirill.Clash.Play.HDTVRip.Deadmauvlad.avi
Формат : AVI
Формат/Информация : Audio Video Interleave
Размер файла : 77,0 Мбайт
Продолжительность : 3 м. 46 с.
Общий поток : 2849 Кбит/сек
Название фильма : Винтаж .feat.Kirill.Clash.Play.HDTVRip.Deadmauvlad
Режиссёр : Deadmauvlad
Жанр : Музыка 16+
Программа кодирования : VirtualDubMod 1.5.10.3 | www.virtualdub-fr.org || (build 2550/release)
Формат оригинала/Имя : Клип
Правообладатель : DeadmauvladTV

Видео
Идентификатор : 0
Формат : MPEG-4 Visual
Профиль формата : Advanced Simple@L5
Параметр BVOP формата : 2
Параметр QPel формата : Нет
Параметр GMC формата : Без точки перехода
Параметр матрицы формата : Default (MPEG)
Идентификатор кодека : XVID
Идентификатор кодека/Подсказка : XviD
Продолжительность : 3 м. 46 с.
Битрейт : 2455 Кбит/сек
Ширина : 720 пикселей
Высота : 400 пикселей
Соотношение сторон : 16:9
Частота кадров : 23,976 кадра/сек
Цветовое пространство : YUV
Субдискретизация насыщенности : 4:2:0
Битовая глубина : 8 бит
Тип развёртки : Прогрессивная
Метод сжатия : С потерями
Бит/(Пиксели*Кадры) : 0.356
Размер потока : 66,4 Мбайт (86%)
Библиотека кодирования : XviD 73

Аудио
Идентификатор : 1
Формат : AC-3
Формат/Информация : Audio Coding 3
Расширение режима : CM (complete main)
Параметр Endianness формата : Big
Идентификатор кодека : 2000
Продолжительность : 3 м. 46 с.
Вид битрейта : Постоянный
Битрейт : 384 Кбит/сек
Каналы : 2 канала
Расположение каналов : Front: L R
Частота : 48,0 КГц
Битовая глубина : 16 бит
Метод сжатия : С потерями
Размер потока : 10,4 Мбайт (13%)
Выравнивание : Разделение по промежуткам
Продолжительность промежутка : 42 мс. (1,00 видеокадр)
Время предзагрузки промежутка : 500 мс

.

pb.wtf



Скачать Винтаж feat Kirill Clash - Play через торрент https://pic1.kartinco.top/images/61/podow.jpg Скачать, смотреть онлайн Винтаж feat Kirill Clash - Play [2014 г., Клип, 16+ , Pop, HDTVRip] бесплантно в хорошем качестве Описание: «Винтаж» — российская поп-группа, в состав которой входят певица Анна Плетнёва и певец, композитор и саунд-продюсер Алексей ... 9.3 10 7
Торрент: Зарегистрирован [2014-05-03 15:21] · скачан: 122 раз
Статус: √ проверено
Размер: 77 MB
Как cкачать? Как скачать Винтаж feat Kirill Clash - Play через торрент | UTorrent

% Раздел Тема Автор DL S | L
Клипы [ 96 MB ] Винтаж feat Kirill Clash - Play [2014 Клип 16+ Pop HDTV 1080p] Se7ven95 Скачать
1 | 0

28-11-2019 20:33  

Отключить всю рекламу на сайте

    Дорогой пользователь! Огромная просьба, поблагодарите релизера, оцените раздачу и оставьте свои комментарий, если Вы скачали Винтаж feat Kirill Clash - Play через торрент бесплатно!
    Комментировать посты могут только пользователи прошедшие не сложную регистрацию
    Показать сообщения:    

    Винтаж feat Kirill Clash - Play через торрент
    Скачать бесплатно Винтаж feat Kirill Clash - Play
    Винтаж feat Kirill Clash - Play скачать торрент
    Винтаж feat Kirill Clash - Play смотреть онлайн
    Cкачать фильм Винтаж feat Kirill Clash - Play бесплатно
    Винтаж feat Kirill Clash - Play скачать торрент в хорошем качестве
    Винтаж feat Kirill Clash - Play смотреть онлайн бесплатно в хорошем качестве


    Вы не можете начинать темы
    Вы не можете отвечать на сообщения
    Вы не можете редактировать свои сообщения
    Вы не можете удалять свои сообщения
    Вы не можете голосовать в опросах
    Вы не можете прикреплять файлы к сообщениям
    Вы можете скачивать файлы