Присоединяйтесь к нам в Telegram!, здесь всегда актуальный адрес сайта, оперативная поддержка и многое другое!!

>

5.9

iTunes

7.4

iTunes

9.4

1 сезон

1

7.4

2 сезон

7.2

iTunes

7.3

1 сезон

13

6.1

iTunes

8.3

Пиратка

30

ULTIMATE

pack

9.9

Лицензия

ВАЖНО

ИГРА 18+

pack

7.3

RePack

MK11

7.7

RePack

jed

7.8

RePack

fifa19

8.5

RePack

RDR2

RePack

NEED FOR SPEED™ PAYBACK

5 сезон

9 сезон

Бесстыжие 9 сезон

Все сериалы

все сериалы на PB.wtf

RePack

FAR CRY 5

Anonymous, доброй ночи, мы катастрофически не успеваем собрать деньги на оплату серверов, помогите нам пожалуйста 5,10,15р., для нас важна любая помощь . В качестве благодарности мы отключим Вам всю рекламу на сайте (укажите свой ник в строку Ваше имя)!

×
  
Magnet ссылка

Винтаж feat Kirill Clash - Play [2014 г., Клип, 16+ , Pop, HDTV 1080p] pb.wtf

Винтаж feat Kirill Clash - Play через торрент pb.wtf

Размер: 96 MB | Добавлен: 7 лет 7 мес. назад | Торрент скачан:343 раза
Смотреть онлайн Винтаж feat Kirill Clash - Play | Скачать    Ребята, помогите собрать деньги на оплату серверов!!!

03-05-2014 15:28 Винтаж feat Kirill Clash - Play Скачать торрент  

Винтаж feat Kirill Clash - Play
Год выпуска: 2014
Страна: Россия
Жанр: Клип, 16+ , Pop
Продолжительность: 00:03:46

В ролях: Анна Юрьевна Плетнёва, Алексей Романов

Описание: «Винтаж» — российская поп-группа, в состав которой входят певица Анна Плетнёва и певец, композитор и саунд-продюсер Алексей Романоф. Ранее в состав группы входили танцовщицы Мия и Светлана Иванова

Качество: HDTV 1080p | (Чистый Рип Без логотипов !!!)
Формат: TS
Видео кодек: AVC
Аудио кодек: MP2
Видео: AVC, 3047 kbps, 25fps, 1920x1080
Аудио#1: MP2, 44100 Hz, stereo, 320 kbps
Релиз от: Deadmauvlad
скриншот   скриншот   скриншот  

Код:

Общее
Идентификатор                            : 1 (0x1)
Полное имя                               : H:\Винтаж .feat.Kirill.Clash.Play.HDTV.1080.Deadmauvlad.ts
Формат                                   : MPEG-TS
Размер файла                             : 95,8 Мбайт
Продолжительность                        : 3 м. 46 с.
Режим общего битрейта                    : Переменный
Общий поток                              : 3545 Кбит/сек
Максимальный общий битрейт               : 35,5 Мбит/сек

Видео
Идентификатор                            : 4113 (0x1011)
Идентификатор меню                       : 1 (0x1)
Формат                                   : AVC
Формат/Информация                        : Advanced Video Codec
Профиль формата                          : High@L4.1
Параметр CABAC формата                   : Да
Параметр ReFrames формата                : 1 кадр
Идентификатор кодека                     : 27
Продолжительность                        : 3 м. 46 с.
Вид битрейта                             : Переменный
Битрейт                                  : 3047 Кбит/сек
Максимальный битрейт                     : 40,0 Мбит/сек
Ширина                                   : 1920 пикселей
Высота                                   : 1080 пикселей
Соотношение сторон                       : 16:9
Режим частоты кадров                     : Переменный
Цветовое пространство                    : YUV
Субдискретизация насыщенности            : 4:2:0
Битовая глубина                          : 8 бит
Тип развёртки                            : Прогрессивная
Размер потока                            : 82,3 Мбайт (86%)
Язык                                     : English

Аудио
Идентификатор                            : 4352 (0x1100)
Идентификатор меню                       : 1 (0x1)
Формат                                   : MPEG Audio
Версия формата                           : Version 1
Профиль формата                          : Layer 2
Идентификатор кодека                     : 4
Продолжительность                        : 3 м. 46 с.
Вид битрейта                             : Постоянный
Битрейт                                  : 320 Кбит/сек
Каналы                                   : 2 канала
Частота                                  : 44,1 КГц
Метод сжатия                             : С потерями
Размер потока                            : 8,65 Мбайт (9%)


pb.wtf



Скачать Винтаж feat Kirill Clash - Play через торрент https://pic1.kartinco.top/images/61/podow.jpg Скачать, смотреть онлайн Винтаж feat Kirill Clash - Play [2014 г., Клип, 16+ , Pop, HDTV 1080p] бесплантно в хорошем качестве Описание: «Винтаж» — российская поп-группа, в состав которой входят певица Анна Плетнёва и певец, композитор и саунд-продюсер Алексей ... 9.5 10 15
Торрент: Зарегистрирован [2014-05-03 15:28] · скачан: 343 раз
Статус: √ проверено
Размер: 96 MB
Как cкачать? Как скачать Винтаж feat Kirill Clash - Play через торрент | UTorrent

% Раздел Тема Автор DL S | L
Клипы [ 77 MB ] Винтаж feat Kirill Clash - Play [2014 Клип 16+ Pop HDTVRip] Se7ven95 Скачать
1 | 0


Последний раз редактировалось: Se7ven95 (2014-05-04 04:43), всего редактировалось 1 раз

28-11-2019 20:33  

Отключить всю рекламу на сайте

03-05-2014 18:33 Винтаж feat Kirill Clash - Play Скачать торрент  

супер клипpb.wtf



    Дорогой пользователь! Огромная просьба, поблагодарите релизера, оцените раздачу и оставьте свои комментарий, если Вы скачали Винтаж feat Kirill Clash - Play через торрент бесплатно!
    Комментировать посты могут только пользователи прошедшие не сложную регистрацию
    Показать сообщения:    

    Винтаж feat Kirill Clash - Play через торрент
    Скачать бесплатно Винтаж feat Kirill Clash - Play
    Винтаж feat Kirill Clash - Play скачать торрент
    Винтаж feat Kirill Clash - Play смотреть онлайн
    Cкачать фильм Винтаж feat Kirill Clash - Play бесплатно
    Винтаж feat Kirill Clash - Play скачать торрент в хорошем качестве
    Винтаж feat Kirill Clash - Play смотреть онлайн бесплатно в хорошем качестве


    Вы не можете начинать темы
    Вы не можете отвечать на сообщения
    Вы не можете редактировать свои сообщения
    Вы не можете удалять свои сообщения
    Вы не можете голосовать в опросах
    Вы не можете прикреплять файлы к сообщениям
    Вы можете скачивать файлы