Ссылка на приватное зеркало нашего сайта всего за 1$. Внимание количество ограничено!!!

2 сезон

iTunes

1 сезон

1

iTunes

iTunes

iTunes

1 сезон

RePack

30

ИГРА 18+

pack

ВАЖНО

!!Акция!!

Alien_RageХит недели

RePack

MK11
pack

Забери бонус

RePack

jed

!!Акция!!

Alien_Rage

RePack

fifa19

RePack

Assassins Creed: Odyssey

RePack

NEED FOR SPEED™ PAYBACK

4 сезон

9 сезон

Бесстыжие 9 сезон

Все сериалы

все сериалы на PB.wtf

RePack

FAR CRY 5
  

Дольше века / Серии: 1-4 из 4 (Эльер Ишмухамедов) [2009 г., Военный, Драма, DVDRip] pb.wtf

Дольше века через торрент pb.wtf

Размер: 2.74 GB | Добавлен: 6 лет 5 мес. назад | Торрент скачан:472 раза
Скачать  

03-05-2014 16:05 Дольше века Скачать торрент  

Дольше векаГод выпуска: 2009
Страна: Россия Киностудия "ЭЛЕГИЯ "
Жанр: Военный, Драма
Продолжительность: 4 х ~ 00:44:43
Режиссер: Эльер Ишмухамедов
Сценарий: Игорь Тер-Карапетов

В ролях: Алексей Комашко, Алина Сергеева, Алексей Франдетти, Тамара Акулова, Елена Владомирская-Пастревич, Андрей Дударенко, Сергей Загребнев, Шухрат Иргашев, Вячеслав Кулаков, Вера Фалютинская, Павел Харланчук, Антон Храпов, Иван Мацкевич, Евгений Хохольков
Описание: 1993 год. Празднование 9 мая. Клим Андреевич Державин - ветеран войны, не может смириться с моральными принципами молодого поколения: ветеранов за героев не принимают, 9 мая - становиться лишь отдаленным напоминанием о победе над фашистской Германией. Последней каплей становится его внук Андрей, который в самый дорогой праздник, в кругу друзей-ветеранов деда произносит тост: "За великую Германию!!!"После неудачного празднования, Клим Андреевич в своей комнате пишет письмо внуку и пускает себе пулю в сердце.Андрей после случившегося находит в комнате дневник деда со времен войны и перечитывая его, узнает правдивую историю своих предков ...
Качество: DVDRip
Формат: AVI
Видео кодек: XviD
Аудио кодек: MP3
Видео: Xvid 720x416, 25.00fps, 2 079 Kbps
Аудио: MPEG Audio Layer 3, 48000Hz, stereo, 112kbps
Релиз от: jeenart





General
Complete name : I:\1 1 1 1\Dolshe_veka_[tfile.ru]\1_[tfile.ru].avi
Format : AVI
Format/Info : Audio Video Interleave
File size : 701 MiB
Duration : 44mn 26s
Overall bit rate mode : Variable
Overall bit rate : 2 204 Kbps
Writing application : VirtualDubMod 1.5.4.1 (build 2178/release)
Writing library : VirtualDubMod build 2178/release

Video
ID : 0
Format : MPEG-4 Visual
Format profile : Advanced Simple@L5
Format settings, BVOP : 1
Format settings, QPel : No
Format settings, GMC : No warppoints
Format settings, Matrix : Custom
Codec ID : XVID
Codec ID/Hint : XviD
Duration : 44mn 26s
Bit rate : 2 079 Kbps
Width : 720 pixels
Height : 416 pixels
Display aspect ratio : 16:9
Frame rate : 25.000 fps
Color space : YUV
Chroma subsampling : 4:2:0
Bit depth : 8 bits
Scan type : Progressive
Compression mode : Lossy
Bits/(Pixel*Frame) : 0.278
Stream size : 661 MiB (94%)
Writing library : XviD 1.2.1 (UTC 2008-12-04)

Audio
ID : 1
Format : MPEG Audio
Format version : Version 1
Format profile : Layer 3
Mode : Joint stereo
Mode extension : MS Stereo
Codec ID : 55
Codec ID/Hint : MP3
Duration : 44mn 26s
Bit rate mode : Variable
Bit rate : 112 Kbps
Nominal bit rate : 128 Kbps
Channel(s) : 2 channels
Sampling rate : 48.0 KHz
Compression mode : Lossy
Stream size : 35.7 MiB (5%)
Alignment : Aligned on interleaves
Interleave, duration : 24 ms (0.60 video frame)
Interleave, preload duration : 509 ms
Writing library : LAME3.98r
Encoding settings : -m j -V 4 -q 2 -lowpass 17 --abr 128

pb.wtf



Скачать Дольше века через торрент http://pic.kartinco.top/images/6/nskpw.jpg Скачать фильм Дольше века через торрент бесплантно в хорошем качестве Описание: 1993 год. Празднование 9 мая. Клим Андреевич Державин - ветеран войны, не может смириться с моральными принципами молодого ... 9.1 10 7
Торрент: Зарегистрирован [2014-05-03 16:10] · скачан: 472 раз
Статус: √ проверено
Размер: 2.74 GB
Как cкачать? Как скачать Дольше века через торрент | qTorrent

28-11-2019 20:33  

Отключить всю рекламу на сайте

    Дорогой пользователь! Огромная просьба, поблагодарите релизера, оцените раздачу и оставьте свои комментарий, если Вы скачали Дольше века через торрент бесплатно! Внесите свою лепту в развитие PiratBit!
    Комментировать посты могут только пользователи прошедшие не сложную регистрацию
    Показать сообщения:    

    Дольше века через торрент
    Скачать бесплатно Дольше века
    Дольше века скачать торрент
    Дольше века смотреть онлайн
    Cкачать фильм Дольше века бесплатно
    Дольше века скачать торрент в хорошем качестве
    Дольше века смотреть онлайн бесплатно в хорошем качестве


    Вы не можете начинать темы
    Вы не можете отвечать на сообщения
    Вы не можете редактировать свои сообщения
    Вы не можете удалять свои сообщения
    Вы не можете голосовать в опросах
    Вы не можете прикреплять файлы к сообщениям
    Вы можете скачивать файлы